&title=Spin Eternally
&artist=Camellia
&first=0.01
&des=LemonCat
&lv_5=14+
&inote_5=(222)
{4}
,,,,,,,
{16}
,,1,2,
{8}
3x-7[8:1]/7,,6,6-4[8:1],,2,2-8[8:1],,7x,7-3-7[4:1],,1,1,1,
{16}
,,2,3,
{8}
4x-8[8:1]/8,,7,7-5[8:1],,3,3-1[8:1],,8x,8-4-8[4:1],,2,2,2,
{16}
,,3,4,
{8}
5x-1[8:1]/1,,8,8-6[8:1],,4,4-2[8:1],,1x,1-5-1[4:1],,3,3,3,
{16}
,,4,5,
{8}
6h[4:1]/2,,8,8h[4:1],,2,2h[2:1],,,,4h[8:1],8h[8:1],6h[8:1],2h[8:1],
{16}
8b,,8,7,
{8}
6x-2[8:1]/2,,36,3-5[8:1],,37,7-1[8:1],,2x/7x,2-6-2[4:1],,28,8,8,
{16}
,,7,6,
{8}
5x-1[8:1]/1,,25,2-4[8:1],,26,6-8[8:1],,1x/6x,1-5-1[4:1],,17,7,7,
{16}
,,6,5,
{8}
4x-8[8:1]/8,,14,1-3[8:1],,15,5-7[8:1],,5x/8x,8-4-8[4:1],,86,6,6,
{16}
,,5,4,
{8}
3h[8:1]/7h[8:1],,48,1h[8:1]/5h[8:1],,26,3h[1:1]/7h[1:1],,
{4}
,,,,A7/A8/E8/B7/B8/E4f/D8,,,,
{16}
A2/A1/E2/B2/B1/E6f/D2,,,,,,,,,,,A3/A4/E4/B3/B4/D4,,,A5/A6/E6/B5/B6/D6,,
{8}
A7/B7/Cf/B2/A2,,,,,,,A8/A1/E1/E8/B8/B1/E2/D1,,A5/A4/E5f/E6/B5/B4/E4/D5,,,,,,,
{16}
2v5[8:1],5,2,5,,,,,7v4[8:1],4,7,4,,,,,3v8[8:1],8,3,8,,,,,6v1[8:1],1,6,1,,,,
,
2,1,2,1,3,8,3,8,4,7,4,7,5,6,5,6,4,7,4,7,3,8,3,8,2,1,2,1,
{32}
2,3,4,5,6,7,8,1,
{4}
2x/4x>8[4:1],8xp4[4:1],4xV28b[4:1],8xV64b[4:1],4xp8[4:1],8x<4[4:1],4x,
{8}
8x,8x,
(111)
{16}
1h[4:1]/7b-4[16:1],,,,7,,8,8,1-5[16:1]/5,2,7-3[16:1]/3,6,15,,7,,8b-6>5[16:1]*-2>3[16:1],,C/B4/E4/E5,,8,,4,4,3-7[16:1]/7,2,5-1[16:1]/1,6,37,,5,,
{32}
2h[8:1],,,,B2,,,,6,5,7h[8:1],,B7,,5,6,4,5,3h[8:1],,B3,,5,4,6,5,7h[16:3],,B7,,,,3h[8:1],,,,B3,,,,7,8,6h[8:1],,B6,,8,7,1w5[16:1],8,2,,37,,,,1b,,,,,,,,
{16}
5h[4:1]/3b-8[16:1],,,,3,,4,4,5-1[16:1]/1,6,3-7[16:1]/7,2,51,,3,,4b-2<1[16:1]*-6<7[16:1],,C/B8/E8/E1,,4,,8,8,7-3[16:1]/3,6,1-5[16:1]/5,2,73,,1,,
{32}
6h[8:1],,,,B6,,,,2,1,3h[8:1],,B3,,1,2,8,1,7h[8:1],,B7,,1,8,2,1,3h[16:3],,B3,,,,7h[8:1],,,,B7,,3,4,2z6-2>5-1<6b[16:6],,,,,,,,26,,,,,,,,,,,,,,,,
{16}
8b-5[16:1]/2b-5[16:1],,37,,28,,1,1,8-4[16:1]/4,7,2-6[16:1]/6,3,84,,2,,1b>2-4[16:1]*<8-6[16:1],,C/B5/E5/E6,,1,,5,5,6-2[16:1]/2,7,4-8[16:1]/8,3,62,,4,,
{32}
7h[8:1],,,,B7,,,,3,4,2h[8:1],,B2,,4,3,5,4,6h[8:1],,B6,,4,5,3,4,2h[16:3],,B2,,,,6h[8:1],,,,B6,,,,2,1,3h[8:1],,B3,,1,2,8w4[16:1],1,7,,62,,,,8b,,,,,,,,
{16}
4b-1[16:1]/6b-1[16:1],,37,,64,,5,5,4-8[16:1]/8,3,6-2[16:1]/2,7,48,,6,,5b<6-8[16:1]*>4-2[16:1],,C/B1/E1/E2,,5,,1,1,2-6[16:1]/6,3,8-4[16:1]/4,7,26,,8,,
(222)
{8}
3h[4:1],1,1,7h[4:1],5,5,Cf,,6h[4:1],8,8,2h[4:1],4,4,Cf,,
{16}
7,1,7,1,6,2,6,2,5,3,5,3,4-8[8:1],4,4,4,
{1}
4b<4[2:1]*>4[2:1],
{16}
E2,,,E3,,,E4,,E8,,,E7,,,E6,,E1,,,C,,,E5,,E7,,,C,,,E3,,E6,,,E7,,,E8,,E4,,,E3,,,E2,,E5,,E1,,B5,,B1,,B6,,B2,,E7,,E3,,
E8,,,E7,,,E6,,E2,,,E3,,,E4,,E1,,,C,,,E5,,E3,,,C,,,E7,,Ch[2:1],,,,,,,,
8,7,6,5,8,1,2,3,8bx,,8bx<5[8:1],,,,8bx>3[8:1],,,,8bx-4[8:1],,,,8bx,,
2,,,2,,,2h[2:1],,4,,,4,,,4h[2:1],,6,,,6,,,6h[2:1],,8,,,8,,,8,,
75,,,74,,,73,,27,,,26,,,25,,24,,4,,53,,3,,64,,6,,75,,5,,
8x,,8,3x,8,,8x,,1x,,1,6x,1,,1x,,5x,,5,2x,5,,5x,,4x,,4,7x,4,,4x,,
7,8,7,8,6,1,6,1,5,2,5,2,4,3,4,3,5,2,5,2,6,1,6,1,7,8,7,8,
{32}
7,6,5,4,3,2,1,8,
{4}
7x/5x<1[4:1],1xq5[4:1],5xV71b[4:1],1xV35b[4:1],5xq1[4:1],1x>5[4:1],5x,
{16}
1b,,1b,,
8xv5[8:1]/2,,,2,8x,,2,,4xv7[8:1]/1,,,1,4x,,1,,6xv1[8:1]/3,,,3,6x,,3,,8xv5[8:1]/2,,,2,8x,,2,,
1x-3[8:1]/6,,,7,1x,,8,,1x-7[8:1]/4,,,3,1x-5[8:1],,2,,1x/6-8[8:1],,6,,6/4-2[8:1],,4,,4/5w1[8:1],,5,,5b,,,,
6xv1[8:1]/4,,,4,6x,,4,,2xv7[8:1]/5,,,5,2x,,5,,8xv5[8:1]/3,,,3,8x,,3,,6h[8:1]/4h[8:1],,,,
3,5,2,6,1,2,37,4,1bh[8:1]/5,,5,4,37,2,1/5bh[8:1],,1,2,37,4,1bh[8:1]/5,6,7,8,16,7,8,1,2-6[8:1]/3-5[8:1],,,,2b/3b,,,,
1xv4[8:1]/7,,,7,1x,,7,,5xv2[8:1]/8,,,8,5x,,8,,3xv8[8:1]/6,,,6,3x,,6,,1xv4[8:1]/7,,,7,1x,,7,,
8x-6[8:1]/3,,,2,8x,,1,,8x-2[8:1]/5,,,6,8x-4[8:1],,7,,8/3-1[8:1],,3,,3/5-7[8:1],,5,,5/4w8[8:1],,4,,4b,,,,
3xv8[8:1]/5,,,5,3x,,5,,7xv2[8:1]/4,,,4,7x,,4,,1xv4[8:1]/6,,,6,1x,,6,,3h[8:1]/5h[8:1],,,,
6,4,7,3,8,7,62,5,8bh[8:1]/4,,4,5,62,7,8/4bh[8:1],,8,7,62,5,8bh[8:1]/4,3,2,1,83,2,1,8,7-3[8:1]/6-4[8:1],,,,7b/6b,,,,
Cf/1-5[8:1],,,,16,,6h[8:1],,4-2b[8:1],,8,,4/8h[8:1],,,,1-5[8:1]/6,,6h[8:1],,1,,7,,4V28b[4:1]/7,,7h[8:1],,4,,8,7,6-2[8:1],,,,63,,3h[8:1],,1-7[8:1]b,,5,,1/5h[8:1],,,,6-2[8:1]/3,,3h[8:1],,6,,4,,1V75b[4:1]/4,,4h[8:1],,1,,3,2,1-5[8:1],,,,16,,6h[8:1],,4-2[8:1]b,,8,,4/8h[8:1],,,,1-5[8:1]/6,,6h[8:1],,1,,7,,4V28b[4:1]/7,,7h[8:1],,4,,8,7,6h[8:1],,,,57,,8h[8:1]/4h[8:1],,,,13,,2h[8:5],,,,Cf,,,,8b,,8b,,8b/2b,,8b/2b,,
{32}
8,7,6,5,4,3,2,1,
{16}
Cf/8-4[8:1],,,,83,,3h[8:1],,5-7b[8:1],,1,,5/1h[8:1],,,,8-4[8:1]/3,,3h[8:1],,8,,2,,5V71b[4:1]/2,,2h[8:1],,5,,1,2,3-7[8:1],,,,36,,6h[8:1],,8-2[8:1]b,,4,,8/4h[8:1],,,,3-7[8:1]/6,,6h[8:1],,3,,5,,8V24b[4:1]/5,,5h[8:1],,8,,6,7,8-4[8:1],,,,83,,3h[8:1],,5-7[8:1]b,,1,,5/1h[8:1],,,,8-4[8:1]/3,,3h[8:1],,8,,2,,5V71b[4:1]/2,,2h[8:1],,5,,1,2,3h[8:1],,,,42,,1h[8:1]/5h[8:1],,,,86,,7h[4:3]/Cf,,,,,,,,,,,,
{8}
1h[8:1],3h[8:1],5h[8:1],7h[8:1],1h[4:1],,B8/B7,,B8/B7/2,2,B8/B7/3,3,B8/B7/4h[4:1],,B8/B7,,E1/E7,C,E3/E5,,B3/B4/5h[4:1],,B4/B3,,B4/B3/6,6,B4/B3/7,7,B4/B3/8h[4:1],,B4/B3,,E2/E6,,E8/E4,,B7/B8/1h[4:1],,B8/B7,,B8/B7/2,2,B8/B7/3,3,B8/B7/4h[8:1],,3-1[8:1],3,5-7[8:1],5,4p8[4:1],4,8xp4[4:1],,4xV28b[4:1],,8xV64b[4:1],,4x>8[4:1],,8x<4[4:1],,4x,,
8h[8:1],6h[8:1],4h[8:1],2h[8:1],8h[4:1],,B1/B2,,B1/B2/7,7,B1/B2/6,6,B1/B2/5h[4:1],,B1/B2,,E1/E3,C,E7/E5,,B6/B5/4h[4:1],,B5/B6,,B5/B6/3,3,B5/B6/2,2,B5/B6/1h[4:1],,B5/B6,,
{16}
B3,B4,B8,B7,
{8}
B1/B2,,B2/B1/8h[4:1],,B1/B2,,B1/B2/7,7,B1/B2/6,6,B1/B2/5h[8:1],,6-8[8:1],6,4-2[8:1],4,5q1[4:1],5,1xq5[4:1],,5xV71b[4:1],,1xV35b[4:1],,5x<1[4:1],,1x>5[4:1],,5x,,Cf,,,,
{12}
7h[2:1],,,,,,1xb,5,3,8xb,4,6,
{1}
2h[1:2],
{16}
B8,B7,B6,B5,B4,B3,B2,B1,
E8,E7,E6,E5,E4,E3,E2,E1,
A8,A7,A6,A5,A4,A3,A2,A1,
8x,7x,6x,5x,4x,3x,2x,1x,
4,8,4,8,3,7,3,7,2,6,2,6,1,5,1,5,
{4}
8w4[8:1],8,26,Cf,
2b-5[8:1]/5b-8[8:1],2b/5b,
{16}
1,4,8,3,7,2,8,3,1,4,8,3,7,2,8,3,1,4,8,3,7h[8:1],,2,,6b-1[8:1]/1b-4[8:1],,,,6b/1b,,,,5,8,4,7,3,6,4,7,5,8,4,7,3,6,4,7,5h[8:1],,,,37,,,,
{8}
1x>2-4[4:1],,4x-6<7[4:1],,7xv1[4:1],,8x,,8x<7-5[4:1],,5x-3>2[4:1],,2xv8[4:1],,1x,,
3h[4:1],,7-4[8:1],7,2-5[8:1],2,6h[8:1],,A6/A5/E6/B6/B5/E2f/D6,,,A3/A4/E4/B3/B4/E8f/D4,,C,
E7/B7/B6/E3/B2/B3,,
{4}
7b-4[8:1]/4b-1[8:1],7b/4b,
{16}
8,5,1,6,2,7,1,6,8,5,1,6,2,7,1,6,8,5,1,6,2h[8:1],,7,,3b-8[8:1]/8b-5[8:1],,,,3b/8b,,,,4,1,5,2,6,3,5,2,4,1,5,2,6,3,5,2,4h[8:1],,,,62,,,,
8-4[8:1],,,,8b,,,,2h[16:3],,,6-1[8:1],,,6,4,6,,,3-8[8:1],,,3,5,3,,,7h[16:3],,,3,2,
{8}
1-5[8:1]/8,,17,8-4[8:1],,82,1-5[8:1],,,7b,,,
{16}
4,5,3,6,2,7,1,8,2,,,25,,,3,4,,6,5,,8,1,8,1,7,,,74,,,6,5,,3,4,,1,8,1,8,
B1,B5,E4,E8,B2,B6,B4,B8,E2,E6,B3,B7,Chf[8:5],,,,,,,,,E5/B5/B1/E1,,,,,,,,,,,6,,,61,,,7,8,,2,1,,4,5,4,5,3,,,38,,,2,1,,7,8,,5,4,5,4,
{8}
5-1[8:1],,53,4-8[8:1],,46,5-1[8:1],,,3bs7[8:3],,,,,,,
3x-7[8:1]/7,,63,6-4[8:1],,62,2-8[8:1],,7x/2x,7-3-7[4:1],,71,1,1,
{16}
,,2,3,
{8}
4x-8[8:1]/8,,74,7-5[8:1],,73,3-1[8:1],,8x/3x,8-4-8[4:1],,82,2,2,
{16}
,,3,4,
{8}
5x-1[8:1]/1,,85,8-6[8:1],,84,4-2[8:1],,4x/1x,1-5-1[4:1],,13,3,3,
{16}
,,4,5,
{8}
6h[8:1]/2h[8:1],,51,8h[8:1]/4h[8:1],,73,6h[8:6]/2h[8:6],,,,,,
{32}
,1xb/5xb,4xb/8xb,3xb/7xb,E
