&title=祠 / ある監視の視点
&artist=Feryquitous
&first=0.232
&des=FLeVI
&wholebpm=128
&des_5=FLeVI
&lv_5=14
&inote_5=(128){1},
{16}4,3,{8}8,{16},2,{8},{16}6,{8},{16}2,{8},5,
{16}4,3,{8}8,{16},2,{8},{16}6,{8},{16}2,{8},5,
{16}4,3,{8}8,{16},2,{8},{16}6,{8},{16}2,{8},5,
{16}4,3,{8}8,{16},2,{8},{16}6,{8},{16}2,{8},5,
{16}4,3,8,2,2,7,,7,{8}8,{16}8,5,,5,{8}3,
{16}4,3,{8}8,{16}8,1,,1,{8}6,{16}6,4,,4,{8}5,
{16}4,3,8,2,2,7,,7,{8}8,{16}8,5,,5,{8}3,
{16}4,3,{8}8,{16}8,1,,1,{8}6,{16}6,4,,4,{8}5,
{16}4,6,1,7,7,2,,2,{8}1,{16}1,4,,4,{8}6,
{16}5,6,{8}1,{16}1,8,,8,{8}3,{16}3,5,,5,{8}4,
{16}5,6,1,7,7,2,,2,{8}1,{16}1,4,,4,{8}6,
{16}5,6,{8}1,{16}1,8,,8,{8}4,{16}4,5,,5,{8}4,
{16}6/3,5,4,6/3,5,4,3,6,{8}6/2,{16}2,8,,8,{8}1,
{16}3/6,4,5,3/6,4,5,{32}3,4,{16}3,5/2,6,,5/4,,3,7,7,
6/3,4,5,3/6,5,4,3,6,{8}6/2,{16}2,8,,8,1,7,
3/6,4,5,3/6,5,5/3,,4,6/4,7,8,2,,3,3,6,
5/4,3,2,1/8,7,6,5,3,{8}3/7,{16}7,1,,1,{8}5,
{16}4/5,6,7,8/1,2,3,{32}5,4,{16}5,3/6,2,,1/8,,7,3,3,
4/8,7,6,4/5,3,2,1,6,{8}2/6,{16}2,5,,5,1,6,
4,3,{8}8,{16}8,1,,1,{8}6,{16}6,3,,3,{8}5,
8b<4[4:1],8,4>8[4:1],4,8V64[4:1],8,4V28[4:1],4,
8p4[4:1],8,4p8[4:1],4,8-4[8:1],8,3x,2x,
1x>5[4:1],1,5<1[4:1],5,1V35[4:1],1,5V71[4:1],5,
1q5[4:1],1,5q1[4:1],5,1-5[8:1],1,6x,7x,
{16}8x,2,{8}8<5[16:3],{16},5>2[16:3],{8},{16}2<7[16:3],{8},{16}7,{8},4,
{16}1x,7,{8}1>4[16:3],{16},4<7[16:3],{8},{16}7>2[16:3],{8},{16}2,{8},5,
{16}7x,4,{8}7>2[16:3],{16},2>5[16:3],{8},{16}5<8[16:3],{8},{16}8,{8},3,
{16}2x,5,{8}2<7[16:3],{16},7<4[16:3],{8},{16}4>1[16:3],{8},{16}1,{8},6,
{16}7x,2,{8}8-2[16:1],{16},8-6[16:1],{8},{16}8-3[16:1],{8},{16}8-5[16:1],{8},8,
{16}2x,6,{8}1-7[16:1],{16},1-3[16:1],{8},{16}1-6[16:1],{8},{16}1-4[16:1],{8},1,
{16}8x,3,{8}8-2[16:1]*-3[16:1],{16},8-6[16:1]*-5[16:1],{8},{16}8-4[16:1],{8},{16}8w4[16:1],{8},8,
{4}Cf,6xh[8:5],{16}8,{8},{16}4,{8},2,
{16}7b,1-5[16:1],{8}8,{16}8-6[16:1],1,,1-3[16:1],{8}8,{16}8-4[16:1],1,,1,{8}8,
{16}2x,8-4[16:1],{8}1,{16}1-3[16:1],8,,8-6[16:1],{8}1,{16}1-5[16:1],8,,8,{8}1,
{16}7x,1-5[16:1],{8}8,{16}8-6[16:1],1,,4-2[16:1],{8}8,{16}5-1[16:1],4,,1,{8}5,
{16}2x,8-4[16:1],{8}1,{16}1-3[16:1],8,,5-7[16:1],{8}1,{16}4-8[16:1],5,,8,{8}4,
{16}7x,1>4[16:1],{8}5,{16}5<8[16:1],1,,2v5[16:1],{8}5,{16}6v1[16:1],2,,3,{8}6,
{16}2x,8<5[16:1],{8}4,{16}4>1[16:1],8,,7v4[16:1],{8}4,{16}3v8[16:1],7,,6,{8}3,
{16}7x,1v4[16:1],{8}5,{16}5v8[16:1],1,,3>8[16:1],{8}5,{16}7<4[16:1],3,,3,{8}7,
{16}2x,5v8[16:1],{8}1,{16}1v4[16:1],5,,6<1[16:1],{8}1,{16}2>5[16:1],6,,6,{8}2,
{16}1x,1-3[16:1],{8}8,{16}7-1[16:1],1,,5-7[16:1],{8}7,{16}3-5[16:1],5,,1,{8}3,
{16}8x,8-6[16:1],{8}1,{16}2-8[16:1],8,,4-2[16:1],{8}2,{16}6-4[16:1],4,,8,{8}6,
{16}1x,1<7[16:1],{8}8,{16}3>1[16:1],1,,5>3[16:1],{8}3,{16}7<5[16:1],5,,1,{8}7,
{16}8x,8>2[16:1],{8}1,{16}6<8[16:1],8,,4<6[16:1],{8}6,{16}2>4[16:1],4,,8,{8}2,
{16}8x,8-5[16:1],{8}1,{16}3-8[16:1],8,,6-3[16:1],{8}3,{16}1-6[16:1],6,,4,{8}1,
{16}4x,4-1[16:1],{8}5,{16}7-4[16:1],4,,2-7[16:1],{8}7,{16}5-2[16:1],2,,8,{8}5,
{16}1x,1v4[16:1],{8}8,{16}6v1[16:1],1,,3v6[16:1],{8}6,{16}8v3[16:1],3,,5,{8}8,
Cf,{16}3/7,3/7,6,6,2,2,5,1,7,3,6,4,8,2,
{8}6b-4[16:1],7,8-6[16:1],1,2-8[16:1],3,4-2[16:1],5,
6-4[16:1],7,8-6[16:1],8-2[16:1],{2}8-4[16:1],
{8}3-5[16:1],2,1-3[16:1],8,7-1[16:1],6,5-7[16:1],4,
3-5[16:1],2,1-3[16:1],1-7[16:1],1-4[16:1],1-6[16:1],{4},{8}2-5[16:1],
1,7-4[16:1],8,3-8[16:1],2,6-1[16:1],7,
4-2[16:1],4-6[16:1],{4}4V28V64[4:1],,{8},7,
8-6[16:1],1,5-1[16:1],4,2-4[16:1],3,1-5[16:1],8,
2-8[16:1],3,7-3[16:1],6,4-6[16:1],5,6,7,
{16}8,3,4,3,,6,5,6,3,4,3,7,3,5,3,8,
2,5,4,5,,2,3,2,5,4,5,1,5,3,5,8,
2,6,5,6,,3,4,3,6,5,6,2,6,4,6,1,
7,4,5,4,,7,6,7,4,5,4,8,4,6,4,1,
3,6,4,7,,3,5,2,6,3,6,5,6,7,6,1,
5,3,6,2,,6,4,7,3,6,3,4,3,2,3,8,
2,5,3,6,,4,7,3,6,1,6,7,6,5,6,3,
Cf,{8},{16}6,{8}7/5,{16}3,2/4,{8},8/1,6,3,
2b/7b-4[16:1],8,{16}7/1-5[16:1],2,,3,{8}1/4-8[16:1],3,{16}4/5-7[16:1],6,,4,
{8}5-1[16:1],4,3-7[16:1],2,1-5-1[8:1],1,{4}1,
{16}7V51[8:1],8,6,1,7,{8},{16}2,2V48[8:1],1,3,8,2,{8},{16}7,
{8}3/7pp1[8:1],8,1/7,2,3pp5[8:1],2,8/3,7,
2>6[8:1],6<2[8:1],{16}2,{8},{16}4,{8}4v7[16:1],3>8[16:1],4,3,
5-7[16:1],5,5-3[16:1],3-7[16:1],2-8[16:1],{4},{8}7,
1/7-5[16:1],6,7/8-4[16:1],2,5-1[16:1],7,5/4-2[16:1],3,
1<5[4:1],{16}1,1,{8}5>1[4:1],5,1p7[4:1],1,3,3,
4-2[16:1],4,{16}8-6[16:1],8,1-5[16:1],1,{8}8-4[16:1],1-3[16:1],8,{16}1,5,
{8}4>2[16:1],4,{16}8<6[16:1],1,7,2,{8}8-4[16:1],3-1[16:1],8,3,
8<5[16:1],1,8/2-6[16:1],1,2/4>1[16:1],5,{16}4/6-2[16:1],7,{8}8,
{16}8v3[16:1],8,3>1[16:1],3,{4},{16}4v7[16:1],4,7<5[16:1],7,{4},{8}8-5[16:1],
8-3[16:1],8,8,7-3[16:1],{16}1-5[16:1],1,{8}7,1,
4-7[16:1],8-3[8:1],4,8,1-6[16:1],5-2[16:1],1,5,
7V15[4:1],6,5V73[4:1],4,3V51[4:1],2,1,8,
Cf,{16}8/1,8/1,7,7,2,2,6,1,8,3,5,1,7,2,
{8}8b/1b,{16}7-3[16:1],5,6,4,{8}7,8/1,{16}2-6[16:1],4,3,5,{8}2,
{16}8-5[16:1],4,8-3[16:1],2,{4},{16}1-4[16:1],5,1-6[16:1],7,{4},{8}7/5v8[16:1],
{16}6,4,{8}5,3,3/1v4[16:1],{16}2,8,{8}1,7,
{16}5-1[16:1],4,6,5,{8},{16}4-8[16:1],5,3,4,{8},{16}1,1,8,8,
{8}7/2,{16}1v3[16:1],6,8,5,{8}1,2/7,{16}8v6[16:1],3,1,4,{8}8,
{16}3-7-1[8:1],7,1-5[16:1],5,{4},{16}6-2-8[8:1],4,8-4[16:1],2,{4},{8}5/3V58[16:3],
{16}4,2,{8}3,1,1/7V14[16:3],{16}8,6,{8}7,6,
{16}6-2[16:1],5,6,7,{8},{16}3-7[16:1],4,3,2,{8},{16}8,8,1,1,
6-8[16:1],3,8-4[16:1],5,6,3,{8}2,{16}3-1[16:1],6,1-5[16:1],4,3,6,{8}7,
{16}8-6[16:1],1,4-2[16:1],3,{8}8,4,{16}1-3[16:1],8,5-7[16:1],6,{8}1,5,
{16}8pp5[16:3],2,6,8,{8}5,7,{16}4pp1[16:3],6,2,4,{8}1,3,
{16}3v8[16:1],2,3,4,{8}3,{16}6v1[16:1],7,6,5,{8}6,{16}2,2,7,7,
1-5[16:1],5-3[16:1],3-1[16:1],8,1,6,{8}7,{16}8-4[16:1],4-6[16:1],6-8[16:1],1,8,3,{8}2,
{16}2-4[16:1],5-7[16:1],4-8[16:1],7,{4}2,{16}6-8[16:1],1-3[16:1],8-4[16:1],3,{4}6,
{16}3V52[8:1],5,2-6[16:1],3,{8}1,8,{16}7V16[8:1],1,6-2[16:1],7,{8}5,4,
Cf,{16}5/4,5/4,6,6,3,3,7,4,5,2,8,4,6/3,6/3,
7bpp2qq7[2:7],4,4,6h,,6,3h,3,5,2h,{4},{8},{16}2h,
5,5,4h,,4,{32}6h,3,{16}6,4,7h,,3,,5,5,3,
7h,4,4,5h,,5,2h,2,8,4h,{4},{8},{16}3h,
5,1,6h,4,8,2h,5,1,8h,,A7,,4,4,5,
3pp6qq3b[2:7],8,8,2h,,2,7h,7,1,6h,{4},{8},{16}6h,
1,1,8h,,8,{32}2h,7,{16}2,8,3h,,7,,1,1,7,
3h,8,8,1h,,1,6h,6,4,8h,{4},{8},{16}7h,
1,5,2h,8,4,6h,1,5,4h,,A3,,8,8,1,
7pp3pp7[2:7],2,2,7h,4,4,7h,6,6,7h,{4},{8},{16}3h,
4,4,3h,6,6,{32}3h,2,{16}1,7,1h,,8,,2,2,8,
1h,6,6,1h,4,4,1h,2,2,1h,{4},{8},{16}5h,
4,3,5h,3,2,5h,2,1,5h,,A7,,3,3,6,
1pp5pp1b[2:7],5,5,2h,7,7,3h,1,1,4h,{4},{8},{16}5h,
1,1,6h,3,3,{32}7h,8,{16}1,5,8h,,4,,6,6,3,
8h,4,4,7h,2,2,6h,8,8,5h,{4},{8},{16}4h,
8,8,3h,6,6,2h,4,4,1h,{4},{8},8bV64[4:1],
8,4V28[4:1],4,8V64[4:1],8,4,{16}2,1,
{8}8-4[16:1],7-5[16:1],8,7,2-4[16:1],1-5[16:1],2,1,
1xV35[4:1],1,5V71[4:1],5,1V35[4:1],1,5,{16}7,8,
{8}1-5[16:1],2-4[16:1],1,2,7-5[16:1],8-4[16:1],7,8,
8x<4[4:1],8,4>8[4:1],4,8<4[4:1],8,4,{16}2,1,
{8}8-4[16:1],7-3[16:1],8,7,2-6[16:1],1-5[16:1],2,1,
1x>5[4:1],1,5<1[4:1],5,1>5[4:1],1,5,{16}7,8,
{8}1-5[16:1],2-6[16:1],1,2,7-3[16:1],8-4[16:1],7,8,
{16}8x<3[16:5],7x<3[4:1],{8}6x>3[16:3],{16}3,3>8[16:3],,8,{8}8<5[16:3],{16}5,5,,2,{8}2,
{16}1,8-4[16:1],{8}7-5[16:1],{16}8,7,,2-4[16:1],{8}1-5[16:1],{16}2-6[16:1],1,{4},{16}1x>6[16:5],
2x>6[4:1],{8}3x<6[16:3],{16}6,6<1[16:3],,1,{8}1>4[16:3],{16}4,4,,7,{8}7,
{16}8,1-5[16:1],{8}2-4[16:1],{16}1,2,,7-5[16:1],{8}8-4[16:1],{16}7-3[16:1],8,{4},{16}8x-6>5-3[16:5],
7x,{8}6x>5-3[16:3],{16}3,3>2-8[16:3],,8,{8}8<7-5[16:3],{16}5,5,,2,{8}2,
{16}1,8p4[16:1],{8}7<5[16:1],{16}8,7,,2>4[16:1],{8}1q5[16:1],{16}2p6[16:1],1,{4},{16}1x-3<4-6[16:5],
2x,{8}3x<4-6[16:3],{16}6,6<7-1[16:3],,1,{8}1>2-4[16:3],{16}4,4,,7,{8}7,
{16}8,1q5[16:1],{8}2>4[16:1],{16}1,2,,7<5[16:1],{8}8p4[16:1],{16}7q3[16:1],8,{4},{16}8x<7-5>3[24:5],
7x,{8}5x>3-1[16:3],{16}1,1<7-5[16:3],,5x,{8}5x>3-1[16:3],{16}1x,1x,{4},{16}2,
1p5[16:1],{8}8<6[16:1],{16}1>3[16:1],8q4[16:1],,1,{8}8,{16}1w5[16:1],8,{4},{16}1x>2-4<6[24:5],
2x,{8}4x<6-8[16:3],{16}8,8>2-4[16:3],,4x,{8}4x<6-8[16:3],{16}8x,8x,{4},{16}7,
8q4[16:1],{8}1>3[16:1],{16}8<6[16:1],1p5[16:1],,8,{8}1,{16}8w4[16:1],1,{4},{16}8xV64[8:1],
6x,{8}4x-1V75[16:5],{16}1,1,,5x-3-8-6[4:1],{8}5x,{16}2x,2x,{4},{16}2,
8-6[16:1],{8}1-5[16:1],{16}8-4[16:1],1-3[16:1],,8-5[16:1],{8}1-4[16:1],{16}8w4[16:1],1,{4},{16}1xV35[8:1],
3x,{8}5x-8V24[16:5],{16}8,8,,4x-6-1-3[4:1],{8}4x,{16}7x,7x,{4},{16}5,
4,{8}8,{16}2,1,,3,{8}4,{16}8w4[16:1],7,{4},{1}7b-2-4-8>1-5-7[2:15]/1b-5-7-2-4-8>1[2:15],
,,,,,,,{16}4,
5,5,5,,5,5,5,,5,5,5,4,5,5,5,
3,6,6,6,,6,6,6,,6,6,6,4,6,6,6,
2,7,7,7,,7,7,7,,7,7,7,1,7,7,7,
1,8,8,8,,8,8,8,,6,6,6,,3,3,3,
5,4,4,4,,4,4,4,,4,4,4,5,4,4,4,
6,3,3,3,,3,3,3,,3,3,3,5,3,3,3,
7,2,2,2,,2,2,2,,2,2,2,8,2,2,2,
Cf,{8},{16}6,{8}7/5,{16}3,2/4,{8},8/1,6,3,
2b/8b>3[16:1],{16}1,7pp4[4:1],8,6,,7/4>6[16:3],{8},{16}2,2,{8},{16}5,5,
{8}6/4x<7[16:1],{16}5,3pp8[4:1],4,2,,3/8<2[16:3],{8},{16}6,6,{8},{16}8,8,
{8}7/1xV75[16:1],{16}8,2q4[4:1],1,3,,2/4<2[16:3],{8},{16}7,7,{8},{16}6,6,
{8}3/5xV31[16:1],{16}4,6q8[4:1],5,7,,6/8>6[16:3],{8},{16}3,3,{8},{16}2,2,
{8}7x/1p3[16:3],{16}8,3>4[16:5],1,4,,4,{8}4-8[16:1],{16}3-1[16:1],3,{4},{8}2x/8q6[16:3],
{16}1,6<5[16:5],8,5,,5,{8}5-1[16:1],{16}6-8[16:1],6,{4},{8}7x/1q2[16:3],
{16}8,2>1[16:5],1,3,,1,{8}1-5[16:1],{16}4-2[16:1],4,{4},{8}2x/8p7[16:3],
{16}1,7<1[4:1],8,6,,8,{8}8-4b[16:1],{16}6,6,{4}8bx-6[16:1],
{8}1x/8-5[16:1],{16}2,2,8-4[16:1],3,,4,{8}8-5[16:1],{16}3,2,{8}8/1-3[16:1],{16}6,7,
{8}8x/1-4[16:1],{16}7,7,1-5[16:1],6,,5,{8}1-4[16:1],{16}6,7,{8}1/8<6[16:1],{16}3,2,
{8}1x/8>2[16:1],{16}3,3,8-6[16:1],4,,5,{8}8-2[16:1],{16}2,3,{8}8/4-2[16:1],{16}8,7,
{8}6x/4-6[16:1],{16}7,7,4>2[16:1],8,,1,{8}4<6[16:1],{16}6,7,{8}8/4,{16}2,3,
{8}4/8x-6[16:1],{16}3,3-1[16:1],8-4[16:1],2,,3,{8}8-6[16:1],5-1[16:1],8,5,
1x-3[16:1],{16}6,6-8[16:1],1-5[16:1],7,,6,{8}1-3[16:1],4-8[16:1],1,4,
8x-5[16:1],{16}4,4-1[16:1],8-6[16:1],3,,4,{8}8-4[16:1],1-3[16:1],8,1,
Cf,{16}1/8,1/8,7,7,3,3,6,2,5/1,5/1,6,4,8,2,
{8}2b/7b-5[16:1],8,{16}7/3-1[16:1],2,,2,{8}3/4-6[16:1],5,{16}4/1V37[8:1],2,,2,
{8}1-4[16:1],5-8[16:1],1-5[16:1],5-1[16:1],{2}1p4[32:3]*q6[32:3],
{16}7<5[16:1],3,5-1[16:1],1,{8}7,4,{16}3>1[16:1],7,1-5[16:1],5,{8}3,6,
7/4pp6[12:1],5,1/4qq2[12:1],3,4/8qq6[12:1],7,3/8pp2[12:1],1,
7V53[8:1]/8V64[8:1],4V28[32:3]/3V17[32:3],{4}8/7,{8}6v1[16:1],{16}5>2[16:1],5,{8}6,5,
8p3[8:1],3>8[8:1],{4}8q1[4:1]*<1[4:1],,{8},{16}2,3,
{8}4-2[16:1]/5-1[16:1],1/2-7[16:1],{4}4/5,{8}1-5[16:1]/8-6[16:1],5/6-3[16:1],{4}8/1,
{8}4-6[8:1],6-2[8:1],2-8[8:1],{16}8-4[8:1],8,{8}7V51[16:3]*-4-2[16:3],7,{4}7,
{16}6,2,{8}6,{16}3-8[16:1],3,7-2[16:1],7,{8}3-6[16:1],7-4[16:1],3,7,
1>3[16:1],8,1-4[16:1],6-4[16:1],{16}1-5[16:1],6,{8}6-8[16:1],1,6,
4-2[16:1]/1-5[16:1],3/8,4p8[16:1],6,4/5v8[16:1]*p1[16:1],{16}5,5,{8},7,
{16}6p8[8:1],6,8<5[16:1],8,{8}6,1,{16}2p4[8:1],2,4>1[16:1],4,{8}2,5,
6v1[16:1]*<1[16:1],6v3[16:1]*>3[16:1],6,6,{16}8-5[16:1],8,3-6[16:1],3,{8}8,3,
4V68[8:1],1V35[8:1],4,1,1V75[8:1],4V28[8:1],1,4,
7-2-5[4:1],6,5-8-3[4:1],4,3-6-1[4:1],2,1,8,
Cf,{16}2/6,2/6,7,7,1,1,8,3,2/6,2/6,1,7,8/4,4/8,
{8}8b<4[8:1],4>8[8:1],8V24V68[4:1],2q8[8:1],{4},{8},{16}4,8,
{384}7x-5-1[8:1]*-5-1[8:1],3-5[16:1],{16},{64},,,{192},,{384}5-1-3[16:1]*-1-3[16:1],1-7[16:1],{4},{16},{64},,,{192},,{8}4/8x-6[16:1]*V24[8:1],2/6V48[16:1],{4},{8}1>5[8:1],
5<1[8:1],1V75V31[4:1],7p1[8:1],{4},{8},{16}5,1,
{384}2V48[8:1],6-8[16:1],{16},{64},,,{192},,{8}4-6[16:1]/8-2[16:1],{4},{8}7-5[16:1]/3V17[32:5],1/5V37[16:1],{4},{8}8V64[8:1],
4V28[8:1],8>8[4:1],2p8[8:1],{4},{8},{16}6,4,
{8}7V51[16:3]/5-3[16:1],3-1[16:1],{4},{8}8-6[16:1]/4-8-2[16:3],6-4[16:1],{4},{8}1V35[8:1],
5V71[8:1],1<1[4:1],7q1[8:1],{4},{8},{16}3,5,
{8}2V48[16:3]/4-6[16:1],6-8[16:1],{4},{8}1-3[16:1]/5-1-7[16:3],3-5[16:1],{4},{8}8V64[8:1],
4V28[8:1],8-4[16:1],2-6[16:1],{4},{8},{16}2,8,
{8}1V37[16:3],1-5[16:1],{4},{8}8V62[16:3],8-4[16:1],{4},{8}1V35[8:1],
5V71[8:1],1-5[16:1],7-3[16:1],{4},{8},{16}7,1,
{8}8V26[16:3],8-4[16:1],{4},{8}1V73[16:3],1-5[16:1],{4},{8}8<4[8:1],
4>8[8:1],8q4[16:1],2p6[16:1],{4},{8},{16}2,8,
{8}1V36[16:3],1-6[16:1],{4},{8}8V63[16:3],8-3[16:1],{4},{8}1>5[8:1],
5<1[8:1],1p5[16:1],7q3[16:1],{4},{8},{16}7,1,
{8}8-2-5[16:3],8-5[16:1],{4},{8}1-7-4[16:3],1-4[16:1],{4},{8}8<6[8:1],
6>4[8:1],4>2[8:1],2-6[8:1]*<7[8:1],{4},{8},{16}1,7,
{8}1-6[16:1],1-4[16:1],{4},{8}8-3[16:1],8-5[16:1],{4},{8}1>3[8:1],
3<5[8:1],5<7[8:1],7-3[8:1]*>2[8:1],{4},{8},{16}8,2,
{8}8-4[16:1],8-6[16:1],{4},{8}1-5[16:1],1-3[16:1],{4},{8}8-6[8:1],
6-4[8:1],4-2[8:1],2-8[8:1]*-6[8:1],{4},{8},{16}1,8,
{8}1-7[16:1],1-3[16:1],{4},{8}8-2[16:1],8-6[16:1],{4},{8}1-3[8:1],
3-5[8:1],5-7[8:1],7-1[8:1]*-3[8:1],{4},{8},{16}8,1,
{8}8-2[16:1],8-6[16:1],8-3[16:1],8-5[16:1],8-4[16:1],8w4[16:1],
E
