&title=蛍はいなかった
&artist=はるまきごはん / 初音ミク
&first=0
&des_1=
&des_2=
&des_3=
&des_4=
&des_5=xxm
&lv_5=13+
&des_6=
&des_7=
&des=xxm
&clock_count=4
&inote_5=(206)
{1},
{8},{8}5hb[2:1]/3,,,{8},3h[8:3],,,4h[2:1],2,,,E1,,B2,,B5h[8:5],,,,,
{8}4pp8[8:5],4,,3,3,,,2,,,8,2,1h[8:5],,,B7h[4:1],,B8h[4:1],,E1,,,,
{8}2,2/4<8[2:1],,3,2h[8:3],,,,2xp6[8:3],,,3,3,3h[4:1],,5,4,,3/6h[4:1],,4,6/4hb[2:1],,,
{8},6h[8:3],,,5,4h[8:3],,,E1,,B7,E7,B4h[8:5],,,,,
{8}5qq1[8:5],5,,6,6,,,7,,,1,8,2h[8:5]/8,,,E1h[4:1],,B1h[4:1],,B2/E3,,,,
{8},3h[8:6]/4,5,6,7h[8:4],,,,3xqq4[8:5],,,7,6,5pp4[8:4]b,,,,,,,,
{8}3^5^3[8:3]/5b,,,6,6h[8:3],,,2^4[16:3],,2/5p4[8:3],,5,,,2bx,,
{8}7^5^7[8:3]/3,,,3,3h[8:3],,,7^5[16:3],,7/4q5[8:3],,4,,,7bx,,
{8}7,4,7,5,8h[8:3],,,2^4[16:3],,2/5p4[8:3],,5,,,2bx,,
{8}2h[4:1]/5h[4:1],,,2/5,3,4,5,2,3<8[8:3],4,2,2q3[8:3],,,,,
{8}4b,,2/5,,3,4h[4:1],,B2h[8:3],,,4,4,2,2,3,3,1/4v6[16:4],,
{8}4,2,,2-4-6[8:3],,7,8h[8:3],,,7x-5v3[8:3],,,{16},,8,,
{8}8,,E3,B2h[8:2],,B1h[8:2],,E1,,,3pp6[8:4]/8h[8:2],
{8},,,,,1>4[4:1],,,,5<8[4:1],,,,2,,
{8}2/4,2,4,4,6,6,8bw4[4:1]b,,
{8},,D5/D4/A4,,{4},
{8}2/8h[8:1],,3,4-7[16:3],,,3,,{8}2h[8:1],,8,3-8[16:3],,,4,,
{8}7h[8:1]/1,,2,4-7[16:3],,,1,,{8}E1f/B1h[8:6]/B8h[8:6],,,,,,D5,,
{8}E5h[8:2]/B5f/B4,,,{8}1x,1h[8:1],,1h[8:1]/5,,
{8}1bx^3[8:1]/6,,5bx^7[8:1],,5bx-1[8:1],,8b<3[2:1]b,,E8h[1:0]/A7,E7h[1:0]/A6,E6h[1:0]/A5,E5h[1:0]/A4,A3f,,,,
{8}2^7[16:3]/7,,2,6-1[16:3],,,5,,{8}2/8<5[16:3],,8,4-8[16:3],,,3,,{8}2^5[16:3]/7,,2,6h[8:3],,,{8}5,7,{8}4bx/8bx,,7,6,3,2,6,5,4/8V64[16:4],,
{8}8,2-5-3[16:4],,2,8,,1bxV35[4:1],,1,7-4-6[4:1],,7,1,,
{8}7-2-8[4:1]/1,,7,4,3-6-4-8[8:4]b,,3b-1[16:4],2b,,,,,
{8}8/1,2,3/5,4,
{8}3^5-1[16:5]/5,,3,7-4[16:3],,,8h[4:1],,{8}6^4-8[16:5],,6,2-5[8:1],,,1h[4:1],,{8}4V28[16:5],,4bx,7bx-5^3-1[16:7]*<1[16:7]b,,A7f,{8},,,,8,8,7/3,4,
{4}5^7[4:1]/7,7bx^1[4:1],1bx^3[4:1],3bx^5[4:1],5bx^8[4:1],8bx^3[4:1],3bx^6[4:1],6bxqq3[16:13],8bqq3>5[16:19]b,A8f,,{8},,,,
{8}4,4,3,5,6/3,6,3/7,7,
{8}2/8bhx[4:1],,1,2,3-6[24:4]/5h[8:1],,3/6-4-7-3[16:7],,,,1,1,8,3x,5/2,,
{8}6bx/1h[4:1],,8,7,6-3[24:4]/4h[8:1],,6/3-5-2-6[16:7],,,,8,8,1,6x,4/7,,
{8}8h[8:1]/1bx-5[4:1],,2,3,4-1[4:1],,5,6,7-3[4:1],,6,5,4h[4:1],,2,4/1,
{8}8bx<4[4:1]b/5,1,2h[8:1],,1bx<5[4:1],2,3h[8:1],,1bx>5[4:1],8,7h[8:1],,8b<4[4:1]*>4[4:1],,,,A4f,
{8},{4}3/5,6-8[8:1],5,4-6[8:1],3h[4:1]/4,2-5[8:1],2,1h[4:1],3-8[8:1],3qq4[8:3],,,
{4}3/7,4,5/6,4/7-5[8:1],4,8-4[8:1],3,7-5[8:1],4,8-4[8:1],3,
{4}B2h[4:5]/E3h[4:6]/B3h[4:7],1,4,8,5,1,4-8[16:3],,
{4}2,3-1[8:1],4,5-3[8:1],6h[4:1]/5,7-5[8:1],7-1[8:1],7pp4[8:4],,5<4[8:5],
{4},,,5/2h[4:1],6hb[4:5],7hb[4:1],,,,
{4}7<3[16:15],7p2[16:11],,,,A2f/D3h[8:20]/A3,,,,,,,,,,,
{4}2-4v5-7[16:15]b,3>8[16:11]b,,,,D8h[8:23]/E8f,,,,,,,,,,,{8},
{8}1s5[4:3],8z4[8:5],,,,,,,,
{8}A5h[8:8]/A4h[1:2]/E5h[1:3],,,,,,,,,
{8}D6,D7,D8,D1,D2,D3,,,
{8}D4,D3,D2,D1,D8,D7,,,
{8}B5/B4,D5,D4/D6,D3/D7,D8/D2,D1,,
{8}2h[4:5]/8,,,,,,,,7h[4:1],,,,1h[8:1]/8h[8:1],,
{32}1b/8b,D2f/D8,A2/A7,D3/D7,A3/A6,D4/D6,A4/A5,D5,,,,,{8},
{8}1/4,1h[8:1],4h[8:1],2h[8:1],5h[8:1],3h[8:1],6h[8:1],4,6,5,E1f/4b-8[8:1]b,,,,
{8}7^2[16:3]/1,,7,3-8[16:3],,,5<8[4:1],,{8}5/8>3[4:1],,4,4-8[16:3],,,2>5[16:3],,{8}2/7bqq6[16:5]*>4[16:5]b,,,,,,{8}5,7,{8}4bx/8bx,,7,6,3,2,6,5,8/4^2-8[16:4],,
{8}4,7-3-5[16:4],,7,1,,1bxV75[4:1],,5pp4[8:3],3,2bx,,1,,
{8}7/3bxV51[4:1],,3,6,7-5-3-1[8:4]b,,4bx^1[16:4],3b,,,,,
{8}1/8,7,6/4,5,
{8}6bx^4-8[16:5]/4,,6,2-5[16:3],,,1<6[16:3],,{8}3bx^5-1[16:5],,3,7-4[8:1],,,8h[4:1],,{8}5<3[16:5],,5bx,4bxqq4[16:7]b*pp4[16:7],,A4f,{8},,,,8,8,7/3,4,
{4}5^7[4:1]/7,7bx^1[4:1],1bx^3[4:1],3bx^5[4:1],5bx^8[4:1],8bx^3[4:1],3bxqq5<4[16:28],5bpp3>4[16:24]b,A5f,,{8},,,,{4},,,
{4}4b,4b,
{8}2/5,4,3,2/5h[8:1],,,6,5-2[16:3],,7v5[16:3],,7,4-2[8:1],,6,,
{8}7/1,6,2,3/4h[8:1],,,3,4-7[16:3],,2v4[16:3],,2,5-7[8:1],,3,,
{8}8/4,7/4,6/4h[4:1],5h[8:1],,,3,2^4[8:1]/5,,2/5pp4[16:6],,5,3,,2,,
{8}1h[4:1]/7h[4:1],,,7/4,6,5,4,7,6>1[8:3],5,7,7p6[8:3],,,,,
{8}5bh[2:1],,,,6,7h[4:1],,3h[8:3],,,4<2[2:1],,A5,A6,A7,A8,4hb[8:5],,
{8}3,3,,1,,2/5,,,3,4,,2/5,,1,
{8}1h[8:5],,,B7h[4:1],,B8h[8:11],,E1,,,,,,,,,
{8}4<2[8:9],,,,,,,,,,
{8}4,5,,3/5,,
{8}4/6x<4[8:47]b,,
{8},,,,,,,4h[8:3],,,,,,5h[8:13],,,,,,,,,,,,,,,,,,
{8}6h[4:3],,,,,,,,7h[4:1],{8},,,
8^3[8:1],
{1},,
E
