&title=Define
&artist=Zekk
&first=0
&des=DawnX
&lv_6=13+
&inote_6=(175){1},
{16},,,,,,,,,,,,8xw4[8:1],,,,
{1}8x<8[16:57],
{1},
{1},
{1},
{1}1>1[1:1],
{1}1>1b[1:1],
{2}1qq6b[1:1]*pp4b[1:1],,,
{2}Cf,
{8}7b-4[8:1],,8,,1-4[8:1],1,8,,
{8}6-1[8:1],,5,,4-1[8:1],4,6,7,
{8}8-4[8:1],,1V35[4:1],,5,6pp4[3:2],7,,,,,,2-5[8:1]*-6[8:1],,2b,,
{8}2-5[8:1],,1,,8-5[8:1],8,1,,
{8}3-8[8:1],,4,,5-8[8:1],5,3,2,
{8}1-5[8:1],,8V64[4:1],,4,3qq5[3:2],2,,,,,,
{16}7h[16:3],,,8,
{8}7<4[8:1],1,2b-5[8:1],,1,,
{8}8-4[8:1],8,5-1[8:1],,7qq4[2:1],,3,2,1,
{8}8>3[4:1],,3<3[3:2],,Cf,,,,,5,,
{8}6-1[8:1],5,6,4,
{16}3h[16:3],,,4,
{8}2>5[8:1],6,7b-2[8:1],,3,,4-8[8:1],4,8,,
{8}5-1[8:1],,1,,3-6[8:1],3,1,8,
{16}7x,5,,5x,4,,4x,2,,1x,8,,
{16}3,6,4,5,1h[16:3],,,4,3,,8h[8:1],,5x,4x,3x,2x,
{8}1bV75[4:1]/8x,,5V31[4:1],,1<5[4:1],,5>1[4:1],,1<1[2:1],,Cf,,,,,,
{8}6,7,8V24[4:1],,4V68[4:1],,8>4[4:1],,4<8[4:1],,
{8}8-4[4:1],,4-2[8:1],4-6[8:1],,,
{8}1h[4:1],,8-4[8:1],,7,,6-1[8:1],6,5,,
{8}4-8[8:1],,3,3,2-5[8:1],2,1,8,
{8}7qq6[4:1],,3,2,1pp3[4:1],1,5,6,7-1[8:1],7-5[8:1],,,
{8}2x-5[8:1],8x-4[8:1],2x<3[4:1],8x,2b,,,,
{8}7x-4[8:1],1x-5[8:1],7x>6[4:1],1x,7b,,,,
{8}3x-8[8:1],5x-1[8:1],3x<2[4:1],5x,3b,,,,
{8}6x-1[8:1],4x-8[8:1],6x>7[4:1],4x,6b,,,,
{8}1,1h[4:1],5,6,
{8}7-4[8:1],,2-5[8:1]/7,,2/8-4[8:1],,1-5[8:1]/8,,
{8}1/7-3[8:1],7,8-4[8:1],8,1-5[8:1],1,2,2h[8:1],
{16}4,3,4,3,5,4,5,4,6,5,6,5,8,1,8,1,
{8}8h[8:1],6h[8:1],4h[8:1],2h[8:1],
{8}8xh[8:1],1xh[8:1],5xh[8:1],4xh[8:1],
{8}7xh[2:3],,E6/B5,,B7,B6,,B2,B3,,E1,E5,,C,4x/5x,,
{8}2xh[2:3],E4/B4,,B2,B3,,B7,B6,,E1,E5,,C,8h[4:1],,1,
{8}2>5[8:1],2,1,8,7>2[8:1],7,6,5,4>1[8:1],4,8,7,6-1[8:1],5,4h[8:1]/6,,
{8}38,
{16}8,8,6,,1,1,3,,7,7,5,,2,2,
{8}4x>2[8:1],4x<6[8:1],4x-1[8:1],4x-7[8:1],4xw8b[8:1],,Cf,,
{8}2xpp8[5:12]/6xqq8[5:12],,,,,,,,,,,,,,,,,,,,,,,Ch[4:1],,,,,,,1w5[8:1],,
{8}1pp5[5:12]*qq5[5:12],,,,,,,,,,,,,,,,,,,,,,,Chf[8:7],,,,,,,,,
{12}7x-5[8:1],,4,7-1[8:1],,2,7-3[8:1],,4,7,,,
{12}2-4[8:1],,5,2-8[8:1],,7,2-6[8:1],,6,2,,,
{12}8-6[8:1],,4,8-2[8:1],,5,8-6[8:1],,4,8,,,
{12}1-3[8:1],,5,1-7[8:1],,4,1-3[8:1],,5,1,,,
{12}6-1[8:1],,6,5-2[8:1],,5,7-2[8:1]*-4[8:1],,,7,,,
{12}3-8[8:1],,3,4-7[8:1],,4,2-7[8:1]*-5[8:1],,,2,,,
{16}3x,4,,4x,5,,5x,6,,8x,1,,7,2,7,2,
{8}7h[8:1],5h[8:1],4h[8:1],2h[8:1],8-4[8:1],1,8,2,
{8}3b/5b-1[8:1],6,5/7-4[8:1],,7>1[8:1],3,7-3[8:1],4,7,5,
{8}8-4[8:1],4pp4[16:3]*qq4[16:3],8,,,,
{8}7/1-5[8:1],2,1/3-8[8:1],,3<5[8:1],7,3-7[8:1],8,3,1,
{8}4-8[8:1],8pp8[16:3]*qq8[16:3],4,,,,
{8}2-5[8:1],6,2,7-4[8:1],3,7,1-5[8:1],5,1>4[8:1]*<6[8:1],,1w5[8:1],,1,,2,6,
{8}7<4[8:1],3,7,1>4[8:1],6,1,7>2[8:1],5,
{8}7,4-8[8:1],5-7[8:1],4x-2[8:1],5x-1[8:1],4x-8[8:1],5x,4x,
{8}7b<4[8:1],2,1-5[8:1]/7,,1<6[8:1],6,1-3[8:1],4,
{8}1,8-6[8:1],8-5[8:1],8-4[8:1],8-3[8:1],,,,
{8}8-4[8:1]/1,7,6/8>3[8:1],,8-6[8:1],4,8-4[8:1],5,8,
{8}1-3[8:1],1-4[8:1],1-5[8:1],1-6[8:1],,,,
{8}2-5[8:1],2,1-4[8:1],1,8-5[8:1],8,7-4[8:1],7,
{8}3-8[8:1],3,2-5[8:1],2,4-7[8:1],4,6-1[8:1],6,
{16}2,,3,3,4,,6,6,5,,2,2,4,,7,7,
{8}5w1[2:1],,,,,,,,
{8}1b>8[4:5]/8b<1[4:5],,,,,,,,,,,,,,
{8}1bs5[8:1]/8bz4[8:1],,1b>8[4:5]/8b<1[4:5],,,,,,,,,,,,,,Cf,,
{8}7-4[8:1],7,3-8[8:1],3,6-1[8:1],6,2-5[8:1],2,
{8}6-1[8:1],6,3-8[8:1]/6,3,3/5w1[8:1],6,5,,
{16}2x/7x,,6,5,8,,3,4,1,,7,5,8,,2,4,
{8}1x>3[8:1],1x<7[8:1],1x-4[8:1],1x-6[8:1],1xw5b[8:1],,Cf,,
{8}3x/7x,
