&title=Einherjar Joker
&artist=DJ Genki vs Gram
&first=0
&des=trivializer
&lv_7=狂
&inote_7=(222)
{1},,
{1}6h[1:1],1,
{1}5h[1:1],1,
{1}4h[1:1],8,
{1}3h[1:1],
{2}1-5[4:3],
{8}5,4,3,2,
{1}1>1[4:3],
{2}6pp2[2:1],2>8[2:1],1-5[4:3],5,1<5[2:1]*>5[2:1],,
{1}5qq2[2:1]*pp8[2:1],3V15[2:1]/7V15[2:1],1-4[4:3]/6>4[4:3],
{2},
{16}3,5,3,5,2,6,2,6,
{8}17,16,,38,48,,1-5[4:3]/6,14,
{1},
{8}82,83,,61,51,,8-4[4:3]/3,85,
{1},
{8}37,15,,26,48,,2/8-4[4:3],46,
{1},
{8}26,48,,37,15,,71,53,,13,57,,36,
{16}4,5,
{24}3,6,3,
{16}5,4,
{8}7b-5[12:1],4,7-1[12:1],2,7-5[12:1],4,7-2[12:1],2,
{8}7-4[8:1],5,7-2[8:1],1,7-4[8:1],5,7,
{16}8,1,
{8}2b-4[12:1],5,2-8[12:1],7,2-4[12:1],5,2-7[12:1],7,
{8}2-5[8:1],4,2-7[8:1],8,2-5[8:1],4,2,8,
{16}7b,6,7,6,7,6,7,6,7,6-1[16:1],7,6,
{4}7,
{16}2,3,2,3,2,3,2,3,2,3-8[16:1],2,3,
{4}2,
{16}7-4[8:1],5,7,5,
{4}7,
{16}1-4[8:1],4,1,4,
{4}1,
{16}8,3,4,3,8,3,4,3,
{8}8,
{24}3,4,3,
{8}8,
{24}3,4,3,
{1}8bv3[4:5]*v5[4:5],
{4},,,26,
{8}8b/3,3,63,4,84,4,65,5,85,4,64,4,8/3-7[8:1],,6,,
{8}16,6,36,5,15,5,34,4,14,5,35,5,1/6-2[8:1],,3,,
{8}1b/3,3,73,4,54,4,75,5,15,4,74,4,5/3-7[8:1],,6,,
{8}86,6,26,5,45,5,24,4,
{16}8h[8:1]/5h[8:1],,,3h[8:1]/7h[8:1],,,12,,35,,26,,1,7,1,7,
{8}1b-3[12:1]/6,6,1-7[12:1]/6,5,1-3[12:1]/5,5,1-7[12:1]/4,4,1-3[12:1]/4,5,1-7[12:1]/5,5,1-5[8:1]/6,,6,,
{8}8b-6[12:1]/3,3,8-2[12:1]/3,4,8-6[12:1]/4,4,8-2[12:1]/5,5,8-6[12:1]/5,4,8-2[12:1]/4,4,8-4[8:1]/3,,3,,
{8}1b-4[8:1]/6,6,1-6[8:1]/6,5,1>3[12:1]/5,5,1-6[8:1]/4,4,1b-4[8:1]/4,5,1<7[12:1]/5,5,1-4[8:1]/6,,1-5[8:1]*-5[8:1]/6,6,
{1}1bw5[2:1]/8,
{16}5,7,5,7,3,8,3,8,1-5[8:1],1,1,1,
{4}1b,
{16}4,6,2,6,8,6,2,6,4,7,2,7,8,7,2,7,4,6,2,6,8,6,2,6,4-8[8:1],5,4,5,4,,7,,
{16}6,1,5,1,4,1,5,1,6,3,7,3,8,3,7,3,6,8,5,8,4,8,5,8,6-2[8:1],4,6,4,6,,4,,
{16}5,3,7,3,1,3,7,3,5,2,7,2,1,2,7,2,5,3,7,3,1,3,7,3,5-1[8:1],4,5,4,5,,2,,
{16}3,8,4,8,5,8,4,8,3,6,2,6,1,6,2,6,3,1,4,1,5,1,4,1,3-7[8:1],5,3,5,3,,5,,
{16}8,6,2,6,4,6,2,6,1,7,3,7,5,7,3,7,2,8,4,8,6,8,4,8,3,7,2,6,15,26,37,48,
{16}1,3,7,3,5,3,7,3,8,2,6,2,4,2,6,2,7,1,5,1,3,1,5,1,6,2,7,3,84,73,62,51,
{8}48,58,68,78,
{16}8-4[8:1]*-4[8:1],6,2,4,
{4}8b,
{8}58,38,28,18,
{16}8-4[8:1]*-4[8:1],2,6,4,
{4}8b,
{16}1-5[8:1]*-5[8:1],3,7,5,
{4}1b,
{16}8-4[8:1]*-4[8:1],6,2,4,
{4}8b,
{16}1,7,3,5,2,8,4,6,3,8,5,7,2,4,1,6,
{1}8b>8[1:1],8>7[1:1],7>6[1:1],6<5[1:1],5<4[1:1],4<3[1:1],3<2[1:1],2q5[2:1],
{12}7,5,7,3,5,3,8,6,8,2,4,2,7,5,7,1,3,1,6,4,6,2,4,2,
{12}6,5,7,3,4,2,6,5,8,3,4,1,6,4,8,3,5,1,7,5,8,2,4,1,
{12}7,5,6,2,4,3,7,5,6,2,4,3,8,6,7,1,3,2,8,6,7,1,3,2,
{12}6,5,8,1,4,3,6,5,8,1,4,3,7,5,8,1,4,2,
{16}7,1,7,1,6,3,6,3,
{4}5b-1[8:32],,,,7h[8:1],7h[8:1],7h[8:1],7h[8:1],
{16}3,4,3,4,3,,7,6,7,6,7,,2,4,3,5,4,6,5,7,4,6,4,6,5-1[8:1]*-1[8:1],5,5,5,
{4}5b,
{16}2,5,3,6,4,7,3,6,2>5[8:1],,,1,2-6[8:1],,8,,
{16}7<4[8:1]/2,,,8,7-3[8:1],,1,,7/2>5[8:1],,,1,2-8[8:1],,7,,
{16}2-4[8:1],,7,6,5/2-8[8:1],,5,6,7/2-4[8:1],,7,,7/2,6,5,,
{16}6,8,7,1,8,2,1,3,4,2,5,3,7,8,7,8,
{48}7b,6,5,
{8}4,
{48}8b,7,6,
{8}5,
{48}1b,8,7,
{16}6,
3,4,3,4,2,1,2,1,
{48}2b,3,4,
{8}5,
{48}1b,2,3,
{8}4,
{48}8b,1,2,
{16}3,
6,5,6,5,7-4[8:1],8,7,8,
{16}7,,2,3,2,,14,,6,5,6,,47,,1,7,3,4,3,6,5,6,2,8,1-5[8:1],1,1,1,
{4}1b,
{8}1-5[8:1]/8-4[8:1],27,18,,
{16}7<4[8:1],,,8,7-3[8:1],,1,,
{16}2>5[8:1]/7,,,1,2-6[8:1],,8,,2/7<4[8:1],,,8,7-1[8:1],,2,,
{16}7-5[8:1],,2,3,4/7-1[8:1],,4,3,2/7-5[8:1],,2,,2/7,3,4,,
{16}3,1,2,8,1,7,8,6,5,7,4,6,2,1,2,1,
{48}2b,3,4,
{8}5,
{48}1b,2,3,
{8}4,
{48}8b,1,2,
{16}3,
6,5,6,5,7,8,7,8,
{48}7b,6,5,
{8}4,
{48}8b,7,6,
{8}5,
{48}1b,8,7,
{16}6,
3,4,3,4,2-5[8:1],1,2,1,
{16}2,,7,6,7,,1,8,1,,3,5,3,,1,7,
{16}8,6,8,6,7,5,7,5,7-3[8:1],5,7,5,
{4}7b,
{24}6,5,6,
{8}5,
{24}3,4,3,
{8}4,
{24}7,6,7,
{8}5,
{24}2,3,2,
{8}4,
{16}1,8,1,8,1,8,1,8,1-5[8:1],8,1,8,
{4}1b,
{8}47,47,,25,25,,58,58,,14,14,,87,61,52,43,
{8}52,52,,74,74,,41,41,,85,85,,12,38,4b/7b,,
{16}3,4,2,5,3,,6,5,7,4,6,,2,1,3,8,2,,7,8,6,1,7,,2,1,3,8,
{4}47,
{16}6,5,7,4,6,,3,4,2,5,3,,7,8,6,1,7,,2,1,3,8,2,,7,8,6,1,
{4}5b/2b,
{16}3h[4:1]/4,5,6,7,8,,1h[4:1]/8,7,6,5,4,,15,26,37,48,
{16}51,,51,48,37,26,15,,
{24}8h[8:1]/2b,3,4,
{8}5,
{24}7h[8:1]/1b,2,3,
{8}4,
{16}6h[4:1]/5,4,3,2,1,,8h[4:1]/1,2,3,4,5,,84,73,62,51,
{16}48,,48,51,62,73,84,,
{24}1h[8:1]/7b,6,5,
{8}4,
{24}2h[8:1]/8b,7,6,
{8}5,
{16}1,7,3,5,1,7,3,5,1-5[8:1]*-5[8:1],7,3,5,
{4}1b,
{16}8,2,6,4,8,2,6,4,8-4[8:1]*-4[8:1],2,6,4,
{4}8b,
{24}3,5,3,5,3,5,
{4}3b,
{24}6,4,6,4,6,4,
{4}6b,
{16}4,5,4,5,3,6,3,6,
{24}2,7,2,7,2,7,1,8,1,8,1,8,
{1}1b<1[4:15]*>1[4:15],,,,E
