&title=ARMAGEΔDON
&artist=BlackY
&first=1.45
&des=H*$#T?
&lv_5=14+
&inote_5=(190){8}
1x-5[8:1],,1,7x-4[8:1],,7/2^5[8:1],,2x^7[8:1],,2xpp3^1[4:1],,2x,,,{16}7x,8,7,,
{8}6x-1[8:1]/1x,,6,2x-5[8:1],,2/8-4[8:1],,8x^3[8:1],,8x^5[8:1],,8x,A4,A3,A2,A1,
7x/8x,6,4/5,3,{16}2,1,{8}2,3/8,7/4,5x/6x,6,6/1,6,{16}7,8,{8}7,1/6,2/5,
{16}3x,4,3,4,2,5,2,5,1x,6,1,6,8,7,8,7,{32}1x,2,3,4,5,6,7,8,1,2,3,4,5,6,7,8,
1,2,3,4,5,6,7,8,1s5[8:11],2,3,4,5,6,7,8,
{1}1bhx[4:5],{8},,,,1x-5[8:1]/8x-4[8:1],1x/8x,,,
2b/7b,,{16}3,,4,,6,5,8,,4/7,,,,3,5,2,,4/6,,7,,3,4,1,,3/5,,6,,
4/7,,,,6,,5,,3,4,2,,5/3,,,,6,4,7,,5/3,,2,,6,5,7,,8x,,8x,,
2/7,,,,3,,4,,6,5,8,,4/7,,,,3,5,2,,4/6,,7,,3,4,1,,3/5,,6,,
4/7,,,,6,,5,,3,4,1,,5/3,,,,6,5,7,,3,4,2,,{8}1x-5[8:1]/8x-4[8:1],1x/8x,,,
2b-5-1[4:1]/7b,,7,8v3^5[4:1],,1,2-6-4-1[8:3],,6,7,8-4-2-5-7[2:1],,1,1h[4:1],,,
2-6[8:1],,7,8-5-3-8[8:3]b,,1,1,,2-6[8:1],2,7-3[8:1],7,1w5[8:1],1,,,
2,2,4,4,5,5,7,7,7/3,2,1/5,6,7/2,3,4/8,7,{12}6h[12:1],2,7h[12:1],3,8h[12:1],4,
{16}7,6,5,4,1,2,3,4,{4}Chf[4:3],,,B2/B3/E3/B6/B7/E7,
{16}3b/7b,,1/2,,3,1h[8:1],,2,8h[8:1],,1,7h[8:1],,8,7,6,
7,5h[8:1],,6,4h[8:1],,5,3h[8:1],,4,3,1,2,,2/8,,
3/7,,4/6,,7,5h[8:1],,6,4h[8:1],,5,3h[8:1],,4,3,2,
3,1h[8:1],,2,8h[8:1],,1,7h[8:1],,8,7,1,6,2,5,3,
4,3,4,2h[8:1],,7,5,6,5,7h[8:1],,2,4,3,4,2h[8:1],
,7,8,6,1,5,2,4,3,5,4,6,5,7,5h[8:1],,6,5,7,3,4,2,6,5,7,3,4,2h[8:1],,7,8,5,
4,1,2,6,4,7,3,8,2,6,4,7,3,5,1,8-4[16:1]b,
,,1b,,2b,,,2-5[8:1],1,,1,2,,,6,5,7h[8:1],,8,6h[8:1],,1,5h[8:1],,2,3,4,5,1,8,7,6,
1/5,,3/4,,2,4h[8:1],,3,5h[8:1],,4,6h[16:3],,,5,6,
7bx/4bx,,,2bx/5bx,,,1bx-5[8:1]/8bx,,,,8,,8,,8,1,7,8,6,1,5,2,4,3,5-1[8:1],5,,4,5,,3,,
2/8,,1,7,2-8[8:1],6,3,5,2-5[8:1]b,,6,,2,,7,,2,3,4,5,1,8,7,6,4,3,2,1,7,6,5,4,
{4}Ch[4:3]f,,7-3[16:1],B7`B3,
2b/6b,{16}1,8,1,8,2-6[16:1]b,,,2/7>6[16:5],,,1/7,,
,,,,2-5[8:1],,,,2/8-4[16:1]b,,,8/2<3[16:5],,,2/6,,
,,,,8-4[8:1],,,,8/2-5[16:1]b,,,2/7-4[16:1],,,7/3,,
,,1,8,1,8,1,8,2,3,4,5w1[8:1],8,7,6,5,
,,,,3/7,,,,2,4,3,6,5,7,1h[4:1],,,,7,,6,5,,7,8,7,,7,{32}2,3,4,5,{16}6/8h[4:1],,
,,1,,7,8,7,8,6,2,5,4,8,,{8}7bx-5s1[8:13]`2bx-8z4[8:13]b,,,,,,,,,,,,,,,,,
{4}3h[1:1],,,,4h[2:1],,5h[2:1],,{6}Ch[1:1],,B1,B8,E1,E2,E3,,,{12}B6,B5,E5,,E2/B2,,
{6}B7/E8,,,E2,E3,E4,E8,E7,E6,{24}D1,D2,D3,D4,{6}D5,B7/B8,
{12}E7,B6,B5,E3,B2,B1,E6,B5,B4,E2,B1,B8,7x,5,6,2x,4,3,{24}6x,5,4,3,2,1,{4}4x/8x,
{8}7bx-3[8:1],,,1bx^4[8:1],,,8V64[8:3],,{16}4bx,,,2bx,,,8bhx[8:3],,,,,,7,8,7,,
6bx^3[8:1],,,,6,,1bx^6[8:1],,,,1,,4bx^1[8:1],,,,
,,7b-3[16:1],,,1bx-5[16:1],,,6b-1[16:1],,,4bx-8[16:1],,,7b,,
7bx,,7,,7/1,,7,8,7bx,,1,8,1,,2/7,,3bx/6bx,,3,,3/5,,3,4,3bx,,5,4,5,,4/5,,
4b,5,4,5,3b,6,3,6,2b,7,2,7,1b,8,1,8,{4}Ch[2:1],,{8},{24}6,7,8,{4}1-4[8:1]/2-4[8:1],
1b/2b-6[8:1],{16}2/8,,7-4[8:1],8,,8,7,,1,,2/5,,
3,6h[8:1],,4,7h[8:1],,1,8,1,,2/7,,4^1[8:1],5,3,6,
4-8[8:1],,,,2x/4x,,2-5[8:1],1,,1,2,,8,,4/7,,
6,3h[8:1],,7,4h[8:1],,7,8,6,1,,2/5,,,3/4,,
4/5-1[8:1],,,,5x/6x,,7-3[8:1],8,,8,7,,1,,2/4,,
3,5h[8:1],,4,6h[8:1],,8,7h[8:1],,1,2/6,,2,5,3,4,
2h[8:1],,,5h[8:1]/6h[8:1],,,2/7,,3,6,4,5,3,6,2,7,
{24}1,8,1,8,1,8,1,8,1,{16}8h[8:1],,2,3,4,5w1[8:1],8,7,6,5,
,,,,3b/7b,,2-5[8:1],1,,1,2,,8,,7/4,,
2bx/5bx,,,3bx/7bx,,,4bx/5bx,,3/6,,2/7,,8w4[8:1]b,1,7,2,
,,,,2b/6b,,7-4[8:1],8,,8,7,,1,,2/5,,
3bx/4bx,,,5bx/6bx,,,7bx/8bx,,1x/2x,1/2,,8bhx[32:1]/7bhx[16:1],,,5bx/6bx,,
{8}3x/7x,3/7,5/6,5/6,3/4,3/4,2/6,2/6,7/8,1/6,5/2,3/4,5/6,4/7,3/8,1/2,
{16}3,4,3,4,2,5,2,5,1,6,1,6,8,7,8,7,{1}Chf[4:3],
{16}2bx,8,2,8,1,7,1,7,2,3,4,5,8,7,6,5,3x,5,3,5,2,6,2,6,8,1,2,3,7,6,5,4,
1x,2,3,4,6,7,8,1,5,4,3,2,8,7,6,5,1x,2,3,4,8x,1,2,3,7x,8,1,2,3b/7b,,,,
8x,2,8,2,7,1,7,1,7,6,5,4,8,1,2,3,7x,6,5,4,{24}8,1,2,3,4,5,{16}1,8,7,6,2,3,4,5,
7x,8,7,8,6x,1,6,1,5x,2,5,2,4x,3,4,3,5x,4,6,3,7x,2,8,1,
{32}7x,6,5,4,3,2,1,8,7,6,5,4,3,2,1,8,
{16}7b/2b,,,,{16}1,8,1,8,2-6[16:1]b,,,2/7>6[16:5],,,1/7,,
,,,,2-5[8:1],,,,2/8-4[16:1]b,,,8/2<3[16:5],,,2/6,,
,,,,8-4[8:1],,,,8/2-5[16:1]b,,,2/7-4[16:1],,,7/3,,
,,1,8,1,8,1,8,2,3,4,5,8,7,6,5,
{16}4/3,,4/5,,5/6,,7,8,7h[8:1],,1-5[8:1],2,3,4,5/1^4[8:1],,
,,1,,6,5,6,5,7/4,,,2/5,,,1/8,,
{32}8,7,6,5,2,3,4,5,{16}8,1,8,1,7,8,,2w6[16:1]b,1,,A2f/E2/B2/E3,E
