&title=うみねこのなく頃に
&artist=志方あきこ
&first=0
&des=Sakurago
&clock_count=4
&lv_5=13
&inote_5=(73.33)
{1},
{72}1b/8b<1b[24:15],2b/7b,3b/6b,4b/5b,,,,,,
{24},,,
,,,
,,,
,,,
,,,
,,,
,,,||
Down
{24}2h[24:3]/5h[24:4],,,
,,,
4h[24:3]/6h[24:4],,,
,,,
E1/B1,,,
B5/E5,,,
E2/E8,,E3/E7,
,E4/E6,,
{24}2h[24:4]/Ch[24:3],,,
,,,
3h[24:3]/5h[24:4],,,
,,,
7h[24:3]/Ch[24:4],,,
,,,
1h[24:3]/6h[24:4],,,
,,,
{24}8qq4b[24:4]/Ch[24:3],,,
,,,
3V17[24:3],,,
,,,{12}8hx[12:0],6hx[12:0],4hx[12:0],2h[12:0]/1w5b[48:3],4h[12:0]/5h[12:0],8h[12:0]/7h[12:0],
{96}1b<1[24:15]*>1[24:15],B1,Cf,B5,{24},,
,,,
,,,
,,,
,,,
,,,
,,,
,,,
{24}6h[12:2]/2,,5,
,1,,
3h[12:2]/8,,,4,4,,
2qq8[24:3]/6q5[24:3],,,
4/8,,,
,,,
,,,
{24}6/3h[12:2],,1,
1,1,,
2/4V25[24:3],,3h[12:1]/8h[12:1],
,,,
4-8[12:1],,,
6,6,,
4x,,7,
,1/6,,
{24}5<8[12:1],,2/4,
,3/6,,
4/5-1[12:1],,,
3,3,,
{24}5/2xqq4[24:5],,,
,,,
6xpp5[12:2],,,
,,,
3xq4[12:2],,,
,,,
C,,,
,,,
{24}2h[12:2]/7,,,
,5,,
3/6h[12:2],,,
5,5,,
4/8>5[48:5]*q5[48:5],,2/6,
,,,
,,,
,6,,
{24}4h[12:2]/7s3[24:3],,,
,,,
2-5[12:1],,,
1x,1x,,
4V62[24:3]*V68[24:3],,,
,6x,,
,,,
,,,
{24}7v2[12:1]/1h[12:2],,,
,5,,
3h[12:2],,,
4,4,,
1pp1[24:3]/5,,3/6,
,4/8,,
,,,
,7,,
{24}6/8-4[12:1],,4/5,
,2/1,,
3-6[12:1]/8,,2,
,1/5,,
3/8w4[12:1],,,
,1/7,,
,,,
,,,
{72}2h[12:2]/8pp7b[48:7],7,6,
{24},,
,,,
5,,5,
,,,
{72}6h[12:2]/1p8b[48:7],2,3,
{24},,
,,,
4,,4,
,,,
{24}2/6h[12:2],,5,
,8,,
7/2h[12:2],,4,
,1,,
3-6[12:1]/8-5[12:1],,4/5,
,2/7,,
,,,
,3,,
{72}4/6pp5[48:7],7,8,
{24},,
,,,
B1/E2,,B4/E4,
,,,
{72}5h[12:2]/3<6[12:1],2,1,
{24},,
,,,
8-4[12:1],,8,
,1h[12:3],,
{24}8-3[12:1],,,
,6h[12:3],,
8pp4b[24:7]*p5b[24:7],,,
,2,,
8b,,,
,,,
,,,
,1/6,,
{24}5bq1[12:1]/3b,,4,
4,7,,
5/2<7[12:1],,4,
,3/5,,
4h[24:3]/2qq7[24:5],,,
,5,5,
2,,,
,8x,,
{24}6p1[12:1],,4/3,
,4/5,,
5/6,,,
4,4,,
2hb[12:1]/6b<2v4b[12:2],,,
3hb[12:1]/8hb[12:1],,,
E1/B1f/E2,,,
,,,
{24}1v2-4[24:3]/5,,7,
7,3,,
1<6[12:1]/6,,7,
,7,,
1/5s1[48:7]*q1[48:7],,,
4,3/7,3/7,
,,,
,,,
{24}4-8[12:1]/2,,5/6,
,4/5,,
3>8[12:1]/4,,,
5xqq8[24:5]/7x,5x/7x,,
3,,5,
,,,
,,1,
,2/7,,
{24}3bp7[12:1]/5b,,4,
4,8,,
3/6<1[12:1],,5,
,5,,
4h[24:3]/6-2-7[24:4]*-2-5[24:4],,,
,3,3,
6,,,
,,,
{24}4/8q5[12:1],,1/6,
,2/7,,
3/8,,,
4,4/7,,
5b-1b[12:1]/8b-4b[12:1],,,
3hb[12:1]/6hb[12:1],,,
5b/8b,,,
,2/7,,
{24}1/5V74[24:3],,6,
6,3,,
1/5-8[12:1],,2,
,2,,
3pp6[24:5]*pp5[96:9]/5x,,,
4,7,7,
3,,,
,,,
{24}8x,,2v8[12:1]/7V53[12:1],
,1/5,,
4/6,,2/7,
,,,
{72}1xv6[12:1]/5x,2,3,{24},,
6/7,,2,
1/2,,4,
,7/8,,
{72}6x-1[12:1]/2,5x,4,{24},,
1/8,,5,
6/5,,3,
,2/7,,
{24}1-4[12:1]/4,,3/8-5[12:1],
3/8,,6,
1-5<7-3>1b[24:24]/6,,8,
,1x,1x,
||Cross
{8}4hbx[12:12],,,,,,,,
