&title=Spirit of the Dauntless
&artist=KO3;Relect
&first=0
&des=MXCustard
&lv_5=14
&inote_5=(180){4},,,,,,,,3h[4:1],
4,5,6,
3h[4:1],4,5,6,
6h[4:1],5,4,3,
6h[4:1],5,4,3,
1h[4:1],4,5,6,
1h[4:1],4,5,6,
8h[4:1],5,4,3,
8h[4:1],5,4,3,
{8}4/6,6,6/8,6,6/2,6,6/3,6,
5/3,3,3/1,3,3/7,3,3/6,3,
4/6,6,6/8,6,6/2,6,6/3,6,
5/3,3,3/1,3,3/7-4[8:1],3,{4}3/7b,
{8}2-4[8:1],6-1[8:1],2,6,3-8[8:1],7<5[8:1],3,7,
2-5[8:1],4/6-8[8:1],2/8,6,3-8[8:1],1/7-5[8:1],3/5,7,
{1}1-5[4:11],
{4}3h[8:1],4h[8:1],6h[8:1],7h[8:1],
3h[8:1],4h[8:1],6h[8:1],7h[8:1],
{16}8,{8},{16}8,{8},8,3h[8:1]/1h[16:1],{16}8,7,{4}4b/6,
{8}6h[8:1],5,6h[8:1],4,6h[8:1],3,6h[8:1],2,
6h[8:1],1,6pp4[2:1],8,{2}6,
{8}3h[8:1],5,3h[8:1],6,3h[8:1],7,3h[8:1],8,
3h[8:1],1,3h[8:1],2,3h[8:1],4,6/5,2/8,
8h[8:1],1,8h[8:1],2,8h[8:1],3,8h[8:1],4,
8h[8:1],5,8qq5[2:1],6,{2}8,
{8}4h[8:1],6,4h[8:1],7,4h[8:1],8h[8:1],3-1[8:1],1-4-8[4:1],
{2},{16}6,5,4,3,7,6,5,4,
{8}8-5[8:1],3,{4}3/8-4[8:1],3>1[8:1]/8-5[8:1],8/3-7[8:1],
3/6<1[8:1],6/2v5[8:1],2/8-4[8:1],{8}8/1,{16}1,2,
{4}5/3-8[8:1],3/6-4[8:1],1-4[8:1]/6<8[8:1],6/1-5[8:1],
1/7-4[8:1],7/2<7[8:1],2/5-8[8:1]*-2[8:1],5,
{8}1-4[8:1],6,{4}6/1-5[8:1],6<8[8:1]/1-4[8:1],1/6-2[8:1],
6/3>8[8:1],3/7v4[8:1],7/1-5[8:1],{8}1/8,{16}8,7,
{8}4/6-1[8:1],3,{4}6/3-5[8:1],8-5[8:1]/3>1[8:1],3/8-4[8:1],
{2}8/6h[2:1],{16}D7,E7,C,E3,D3,E6,E5,E4,
{2},,,{4}8-4b[8:1],
8>3b[8:1],
8,{8}5/4,{16}5,4,{8}6,{16}4,5,{8}3,{16}6,5,
{8}7,{16}3,4,{8}2,{16}6,5,{8}7,{16}5,6,4,5,3,4,
{4}1h[8:1],{8}5/3,{16}4,5,{8}3,{16}5,4,{8}6,{16}3,4,
{8}2,{16}6,5,{8}7,{16}3,4,{8}2,{16}4,3,5,4,6,5,
{4}8h[8:1],{8}6/4,{16}4,5,{8}3,{16}6,5,{8}7,{16}3,4,
{4}2qq5[2:1],8,7h[8:1],6,
{8}7b/3b,{16}2b,8b,{4}1b-4b[8:1],7b/1b-6b[8:1],3b/1b-3b[8:1],
7b/1b-7b[8:1],3b/1b-4b[8:1],7b/1b-6b[8:1],3b/1b-3b[8:1],
8b/1b<7b[8:1],2b/1b-4b[8:1],8b/1b-7b[8:1],2b/1b>3b[8:1],
7b/1b-6b[8:1],2b/1b-5b[8:1],{16}8b,7b,{8}6b,3bx-1b[8:1],7bx-5b[8:1],
3bx-7b[8:1],7bx,{4}3bx<5b[8:1],3bx/8bx-5b[8:1],8bx/3bx>8b[8:1],
{8}3bx/8bx-4b[8:1],{32}7bxh[64:1],6bxh[64:1],5bxh[64:1],4bxh[64:1],{4},{8}3bx/5bx,{16}4bx,5bx,{4}2bx,
{8}5bx/7bx,{16}6bx,5bx,{8}8bx,4bx/2bx,{16}6bx,5bx,{8}7bx,{4}1bxs5>4z8[1:1]/8bxz4<5s1[1:1],
,,,,,2,
3,4,
5,5,6,6<7v8>1v2>3[1:2],
{1},,{4}1,
2,3,4,
5,5,6,6<7>8>1>2>3>2<1<8<7<6[1:2],
E7,E6,E4,E3,
E7,E6,E4,E3,
{8}4h[8:1],5h[8:1],{4}2h[8:3],{8},4h[8:1],3h[8:1],5h[8:1],
1h[4:1],{4},{8}4,{4}4h[4:1],8h[4:1],
{8}5h[8:1],4h[8:1],{4}7h[8:3],{8},5h[8:1],6h[8:1],4h[8:1],
8h[4:1],{4},{8}5,{4}5h[4:1],1h[4:1],
{8}4h[8:1],5h[8:1],{4}2h[8:3],{8},4h[8:1],3h[8:1],5h[8:1],
1h[4:1],{4},{8}4,{4}4h[4:1],8h[4:1],
{8}5h[8:1],4h[8:1],{4}7h[4:1],{8},5h[8:1],6h[8:1],4h[8:1],
{4}8pp5[2:1],{2},{4}4,
2pp5[2:3],7,7,7,
8,8,8,8qq5[4:7],
2,2,2,2,
1,1,1,8b,
{8}7-5[8:1],3-8[8:1],7,3,6-1[8:1],2>4[8:1],6,2,
7-4[8:1],5/3-1[8:1],7/1,3,6-1[8:1],8/2-4[8:1],6/4,2,
{4}8,{32}E7,B8,{16}E2,{8},{32}B3,B4,{16}B5,{8},{32}B6,C,{16}B2,{8},3h[8:1],
5,6h[8:1],4,{16}3/7,{8},{16}2/6,{4},{8}3-8[8:1]/7<4[8:1],
3/7,{4}3b/7b-3[8:1],7b/1-5[8:1],6<8[8:1]/1b-4[8:1],
1b/6b-2[8:1],{8}3>8[8:1]/6b>3[8:1],4,{16}6b/3b-7[16:1],{8},{16}1x,{4},{8}6-1[8:1]/2>5[8:1],
6/2,{4}6b/2b-6[8:1],2b/8-4[8:1],3>1[8:1]/8b-5[8:1],
8b/3b-7[8:1],{8}6<1[8:1]/3b<6[8:1],5,{16}3b/6b-2[16:1],{8},{16}8x,{8},8,
3-8[8:1]/7<4[8:1],3/7,{4}3b/7b-3[8:1],7b/1-5[8:1],6<8[8:1]/1b-4[8:1],
6b/1b,{8}3/6,2/8,{12}7x/3x,3/7,3/7,6x-8[8:1]/2x-4[8:1],6/2,6/2,
{4}2bx-8[8:1]/6bx-4[8:1],2/6bx-2[8:1],6b/8-4[8:1],8b/5w1[2:1],
,,,3b/7b,
{8}2>5[8:1]/5-1[8:1],5/2,{4}5b/2b-6[8:1],2b/7-3[8:1],1-5[8:1]/7b-4[8:1],
1b/7bV52[4:1],{8}7b,3,{16}1-6b[16:1]*-4[16:1],{8},{16}1bx,{4},{8}7x<4[8:1]/4x-8[8:1],
7x/4x,{4}4bx/7bx-3[8:1],7b/2-6[8:1],8-4[8:1]/2b-5[8:1],
8b/2bV47[4:1],{8}2b,6,{16}8-3b[16:1]*-5[16:1],{8},{16}8bx,{4},{8}6>2[2:1],
6,{4}6,2<6[2:1],4,
{2}6>2[2:1],2<8[4:1],
{8}3,3,3,5h[48:1],3,3,{12}3,5,2,
{16}4h[16:1],{8},{16}4h[16:1]/5h[16:1],{8},5h[16:1]/6h[16:1],4/7,{16}6,5,{4}8>3[8:1],
4b-1[8:1]/8b<5b[8:1],4b/8b-3[8:1],8b/4b-8[8:1],4b/2b>5[8:1]*<7b[8:1],
2b-6[8:1],2b/4b-1[8:1],4b/8b<5b[8:1],8b-4[8:1]/3b>1b[8:1],
8b/3b-7[8:1],3b/5b-1[8:1],5b/8b-4[8:1],5b>2b[8:1]/8b<5[8:1],
5b/8b-4[8:1],8b/1b,{16}3bx,5bx,{8}1bx,8bx/7bx,3bx/5bx,
5bx-8[8:1]/1bx>4b[8:1],1bx/5bx,{4}5bx/1bx-6[8:1],1b/5b-1[8:1],5b/7b<4[8:1]*>2b[8:1],
7b-3[8:1],7b/5b-8[8:1],5b/1b>4b[8:1],1b-5[8:1]/6b<8b[8:1],
1b/6b-2[8:1],6b/4b-8[8:1],4b/1b-5[8:1],4b<7[8:1]/1b>4b[8:1],
4b/1b-5[8:1],1b/8b,{16}4,6,4,6,3,7,2,8,
{8}1bx>4b[8:1],6,1bx-7b[8:1],5,1bx-3b[8:1],4,{4}1bx<6b[8:1],
5/1bx-4b[8:1],8/1bx-6b[8:1],3/1bx>4b[8:1],7/1bx-7b[8:1],
{8}1bx>4b[8:1],6,1bx-7b[8:1],5,1bx-3b[8:1],4,{4}1bx-5b[8:1],
1bx/3bx>8b[8:1],{32}7h[64:1],6h[64:1],5h[64:1],4h[64:1],{8},{16}1bxw5[16:1],{8},{16}1bx,{4},{8}8bx<5b[8:1],
3,8bx-2b[8:1],4,8bx-6b[8:1],5,8bx,4,
3bx-8[8:1],8bxV25[8:1],3b,6b,7bx-4[8:1],4bxV61[8:1],7b,2b,
{16}3,4,5,6,2,3,4,5,1,2,3,4,8,1,2,3,
{2},{8}3/6,{16}4,5,{4}6>4q1[1:3]/3<5p8[1:3],
{1}Cf,
E
