&title=完全超悪アマノジャク
&artist=Stack
&first=0.1
&des=HEHE122
&lv_5=13+
&inote_5=(163)
{4}
5h[4:1],,1h[4:1],,7h[2:1],3h[2:1],,7,
{8}8-5[8:1],1,8,,4-1[8:1],,4,5,
5-8[8:1],4,5,,1-4[8:1],,1,8,
6-3[8:1],2,6,,2-7[8:1],,2,6,
3-6[8:1],7,3,,7-2[8:1],,7,3,
4-1[8:1]/5,3,4,,8-5[8:1],,8,1,
1-4[8:1]/8,2,1,,5-8[8:1],,5,4,
2-7[8:1]/6,1,2,,6-3[8:1],,6,2,
7-2[8:1]/3,8,7,,3-6[8:1],,3,7,
8b<1[4:6],,,,,,,,C,,E6,E5,E4,,
8<1[4:6],7,6b,,,,C,,E7,E6,E5,,C,,C,,
E8/4-1[2:1],,B7,,B6,,E6,,E2/5-8[2:1],,B2,,B3,,E4,,
B8,,B7,,B6,,B5,,B4,,B3,,
Ch[4:1],,E2/B2/B1/E6/B6/B5,,8-4[8:1],,
8b/7,,5/6,,5/4-8[8:1],,4/3,,4/5-1[8:1],,5/6,,4-8[8:1]/5,,4/3,2,
1-6[8:1],,1/2,,8-3[8:1]/1,,8/7-4[8:1],,
7b/2-5[8:1],,2b/8-3[8:1],,8b/1-6[8:1],,1b/4-8[8:1],,
4b,,1/2,,1/8-4[8:1],,8/7,,8/1-5[8:1],,1/2,,8-4[8:1]/1,,8/7,6,
5-2[8:1],,5/6,,4-7[8:1]/5,,4/3-8[8:1],,
3b/6-1[8:1],,6b/4-7[8:1],,4b/5w1[8:1],,,,
3>6[4:1]/6,,,6,5h[2:1],,,,,,7-5[8:1],8-4[8:1],7-2[8:1],8,7x,3,4h[8:3],,,,
5/6,4-8[8:1],,4/3,2h[2:1],,,8-5[8:1],,8/4-1[8:1],3,4/8,7,6,5/1h[8:1],,2h[8:1],,3h[8:1],,7h[2:1]/1,2,3,4,3h[8:1],,7,1b/8b,1h[8:3]/8h[8:3],,,,4b/5b,,4h[4:1]/5h[4:1],,,,
{16}C,
B7/B2,A7/A2,,1x/8x,,{8}2/7,3/6,4/5,
6<3[4:1]/3,,,3,4h[2:1],,,,,,2-4[8:1],1-5[8:1],2-7[8:1],1,2x,6,5h[8:3],,,,
4/3,5-1[8:1],,5/6,7h[2:1],,,1-4[8:1],,1/5-8[8:1],6,5/1,2,3,4/8h[8:1],,7h[8:1],,6h[8:1]/1b,,2h[2:1]/8b,,,,6h[8:1],,3,,8b/1b,,6,,1b/8b,,3,,8b/7b,,1b/2b,,4b/3b,,5b/6b,,
4-8[8:1],,,5,5,8,8,5,,5,8,5,8,5,8,6-8[8:1]/2-8[8:1],
8-4[8:1],,,1,1,4,4,1,,1,4,1,4,1,4,2-4[8:1]/6-4[8:1],
4-8[8:1],,,5,5,8,8,5,,5,8,5,8,5,8,3-1[8:1]/7-1[8:1],
1-5[8:1],,,8,8,5,5,8,,8,5,8,
{16}5,4,3,,6b,,1b,,
5h[2:1],,1,2,3,,8,1,2,3,4,,,,7/3,,
4h[2:1],,8,7,6,,1,8,7,6,5,,,,,,
6h[2:1],,2,3,4,,1,2,3,4,5,,,,8/2,,
3h[2:1],,7,6,5,,8,7,6,5,4,,2/7,,,,
7/8,,1,2,3,4,1,2,3,4,5,,,,3/8,,
1/2,,8,7,6,5,8,7,6,5,4,,,,,,
1/7,,8,1,2,3,8,1,2,3,4,,,,3/7,,
2/8,,1,8,7,6,1,8,7,6,5,,,,,,
1/8,2,3,4h[16:4],1,8,7,6,5,4,3,,,,,,
8/1,7,6,5h[16:4],8,1,2,3,4,5,6,,,,,,
8/7,1,2,3h[16:4],8,7,6,5,4,3,2,,,,,,
1/2,8,7,6h[16:4],1,2,3,4,5,6,7,,,,,,
5h[8:1]/1,8,7,,5h[8:1]/1,2,3,4,5h[8:1],,,,5h[8:1],,,,
4h[8:1]/8,1,2,,4h[8:1]/8,7,6,5,4h[8:1],,,,4h[8:1],,,,
5h[8:1]/1,8,7,,5h[8:1]/1,2,3,4,5h[8:1],,,,5h[8:1],,,,
1,2,3,4,8,7,6,5,2,1,8,7,6,5,4,3,
{8}
1b/2,,4/3,,4/5-1[8:1],,5/6,,5/4-8[8:1],,4/3,,5-1[8:1]/4,,5/6,7,
8-3[8:1],,8/7,,1-6[8:1]/8,,1/2-5[8:1],,
2b/7-4[8:1],,7b/1-6[8:1],,1b/8-3[8:1],,8b/5-1[8:1],,
5b,,8/7,,8/1-5[8:1],,1/2,,1/8-4[8:1],,8/7,,1-5[8:1]/8,,1/2,3,
4-7[8:1],,4/3,,5-2[8:1]/4,,5/6,,
6b-3<6[2:3],,,,,,,,
,E7,B7,C,B2,E3,,,
6<3[4:1]/3,,,3,4h[2:1],,,,,,2-6[8:1],1-4[8:1],2<7[8:1],1,2x,6,5h[8:3],,,,
4/3,5-1[8:1],,5/6,7h[2:1],,,1-4[8:1],,1/5-8[8:1],6,5/1,2,3,4/8h[8:1],,7h[8:1],,6h[8:1],,2h[2:1]/8,7,6,5,6h[8:1],,2,8b/1b,8h[8:3]/1h[8:3],,,,5b/4b,,5h[4:1]/4h[4:1],,,,
{16}C,
B2/B7,A2/A7,,8x/1x,,{8}7/2,6/3,5/4,
3>6[4:1]/6,,,6,5h[2:1],,,,,,7-3[8:1],8-5[8:1],7>2[8:1],8,7x,3,4h[8:3],,,,
5/6,4-8[8:1],,4/3,2h[2:1],,,8-5[8:1],,8/4-1[8:1],3,4/8,7,6,5/1h[8:1],,2h[8:1],,3h[8:1]/8b,,7h[2:1]/1b,,,,3h[8:1],,6,,1b/8b,,3,,8b/1b,,6,,1b/2b,,8b/7b,,5b/6b,,4b/3b,,
4-1[8:1],,,5,5,1,1,5,,5,1,5,1,5,1,2v1[8:1],
1-4[8:1],,,8,8,4,4,8,,8,4,8,4,8,4,6v5[8:1],
5-8[8:1],,,4,4,8,8,4,,4,8,4,8,4,8,7v8[8:1],
8-5[8:1],,,1,1,5,5,1,,1,5,1,
{16}1/5,2/6,3b/7b,,C,,1>4[8:1]/7<4[8:1],,
{16}
4-8[8:1],,,,,,5,,6,6,1,,5,,5,,,,5-1[8:1]/1,,6,,1-5[8:1],,2,,8,,7,,4>1[8:1]/6<1[8:1],,
1-5[8:1],,,,,,8,,7,7,4,,8,,8,,,,8-4[8:1]/4,,7,,4-8[8:1],,3,,6,,7,,2>5[8:1]/8<5[8:1],,
5-1[8:1],,,,,,6,,7,,2,,6,,6,,,,6-2[8:1]/2,,7,,2-6[8:1],,3,,1,,8,,5>2[8:1]/7>2[8:1],,
2-6[8:1],,,,,,1,,8,,5,,7,,7,,,,1-5[8:1]/5,,8,,1,,6,6,7,,8,,Ch[16:1],,
