&title=星降之海
&artist=Aqu3ra
&first=-0.138
&des=A
&lv_5=12+
&des_5=A
&inote_5=
(101.01){4},4,4x/E6,7h[4:1]/E4,
B8,5,5x/E4,2h[4:1]/E6,
B1,5<8[4:1],8>3[4:1],3,
5,1-4[8:1]/5-8[8:1],,1qq6b[8:3]/5qq2b[8:3],
{8},,,,,5,{4}5V74[4:1],
{8},3,2,5,8/1-6[8:1],6,{4}1/8-3[8:1],
8qq6[8:1]/1-5[8:1],8/1,{8},5,8/1-5[8:1],2,
3/1>5<1-3-5-7-1b[4:3],2,{4}5h[1:1],{8},,,,,1,
{16}B1/B8/E1f,,,3h[8:1],,5,{8}6h[8:1],{16},1,{8}1h[8:1],
{64}B7,B6,,,,,,,{16}2,1,2,,,6h[8:1],,4,{8}3h[8:1],{16},8,{8}8h[8:1],
{64}B2,B3,,,,,,,{16}7,8,7,,,4h[8:1]/5h[8:1],,,{8}6h[8:1]/3h[8:1],{16},5/4,{8}5/4,
{16}B1/B8,,,1-4-6-8[4:1]/5-8-2-4[4:1],1b/5b,,,1/5,,,,,,5x/1x,{8}8/4,
2b/7b,{16}5,5,4,,,3,{8}3/4,1<5[8:1],2,3>7[8:1],
4,5,{16}5,,,5,{8}6/5,8>4[8:1],7,6<2[8:1],
5,4,{4}4,{8}1/7qq4[4:1],2,{16}4,3,{8}2,
8,3,{4}2,{8}8/2pp5[4:1],7,{16}5,6,{8}7,
{4}1,{16}4h[16:3],,,2,,,{8}4,{4}7xV53[8:1],
7/1,{16}1h[16:3],,,3,,,{8}8,{4}3xV17[8:1],
{8}3/5,{16}5,1,{8}3,8h[8:1],2h[8:1],5,{4}7/1-4[8:1],
{8}1/8-5[8:1],7,{4}8/1-5[8:1]*>5[8:1],1b<5[4:1],5>1[4:1],
1,{16}5h[16:3],,,7,,,{8}5,{4}2xV46[8:1],
2/8,{16}8h[16:3],,,6,,,{8}1,{4}6xV82[8:1],
{8}6/4,{16}4,8,{8}6,1h[8:1],7h[8:1],4,{4}2b/8b-5[8:1],
{8}8/1-4[8:1],2,{4}1/8<4[8:1]*>4[8:1],8,{8}1s5[4:1],7/3,
,,{4}8h[8:7],{8},3,{4}B3,
{8},1,{4}7/8>5p8[4:9],7,B7,
{8},8,{4}8,{8},7,{4}B7,
{8},6,{4}6,{8},5,{4}B5,
{16}3,3,{8}6,{16}8b/1b,,,3,{8}3/4<7[8:1],8/7,{16},,,,6,
6,{8}3,{16}1b/8b,,,6,{8}6/5>2[8:1],1/2,,8p4[8:1],
1/7,{16}8,{32}1,2,{16}3,,,6,{8}6,3,{16}6,5,{8}4,
4/3,{16}8,1,2,,,3,{8}3,6,{16}3,4,{8}5,
5/6,4,{4}4bp8[4:1],,5pp5[4:1]*qq4[4:1],
{8},,,6/2,4>8[8:1]/8<4[8:1],6/2,{32}8/4,A3/A7,{16}A2/A6,,,{4}3h[4:1],
{16}6h[16:3],,,5,{8}4/7,5/4,{16}6,5/4,{8}3,
{4}5b/4b,{16}3h[16:3],,,4,{8}5/2,5/4,2/7,1/8,
{4}5h[4:1]/3b-1[16:1],{8}3,4/6-8[16:1],7/3,6b/5b,{16}4,5,{8}4,
7/2,6h[8:1],2h[8:1],5,3p6[8:1],5/4,{4}3/7bpp4[4:1],
{8}2,3,{16}3h[16:3],,,4,{8}5/2,4/5,{16}3,4/5,{8}6,
{4}4b/5b,{16}6h[16:3],,,5,{8}4/7,1/2-5[8:1],8,4/2b,
6,8/7-4[8:1],1,7b/5,2,7/6,{16}1,8,{8}1,
4/5,2,2/3,3,4/3,4,{4}4z8[8:1]/5s1[8:1],
4b/5b,B2/B3/B6/B7/E7/E1/E3/E5/B8/B5/B4/B1/Cf,{8},2,{16}1/4h[16:3],,,3,
{8}4,2,6/5,2,6xh[4:1]/7-1[8:1],7,{4}7bp3[4:1],
{8}3<7[4:1],B1,{4}B1,{8},7,{16}8/5xh[16:3],,,6,
{8}5,7,3/4,7,3h[4:1]/2-8b[8:1],2,{4}2bq6b[4:1],
{8}6>2b[4:1],B8,{4}B8,{8},7,{16}A8,B7,B5,2,
{8}6/4,4,{16}A7,B6,B4,1,{8}5/3,3,{16}A6,B5,B3,8,
{8}4/2,2,{4}8/1,{8}2/6,3,7>3V17[8:5],1,
3,5b,{16}5,,,4,{4}4,{16}2,2,,2,
{8}7/2<6V82[8:5],8,{16}6,,,4b,,,{8}4,{16}5,5,,,{8}2/7>3V17[8:5],
1,{16}3,,,5b,,,{8}5,{16}4,4,,,{8}7/2,
{16}6,3,7,,,2,,E8,B6,A5,,E4,B2,A1,
,B6,B4,B2,B8,,,E7/E3,,A8/A2,A7/A3,A6/A4,,,{8}5x,
{4}4x,{16}2h[16:3],,,4,{8}3,{16}8,2,5bx,3,4,2,
5/3bx,,,3,4,,,5,{8}6,{16}1,7,4bx,6,5,7,
{8}6bx/4<7[8:1],4,{4}4>1[8:1],4w8[8:1],4b,
{1}5<8pp5[4:3]/1>4pp1b[4:3],
{8},B6/B7/B8/B1/B2/B3/B4/B5/Ch[8:1],
E
