&title=Across the Starlight
&artist=かゆき
&first=0
&des=Kn
&wholebpm=170
&demo_seek=65.647
&demo_len=23.294
&des_5=Kn
&clock_count=4
&lv_5=14
&inote_5=(170){1},
{8},,,,{48},,,3h[48:8],,,,,,,,4h[48:7],{8},5h[8:1],
6<4[8:4],,,,,,5V38[8:2],5h[8:3],
,,,,5,6,7,8,
{16}6h[8:1]/7h[8:1],,,4h[8:1]/5h[8:1],,,2h[8:4]/3h[8:2],,,,,,4,5,6,7,
2h[8:1]/8h[8:1],,,4h[8:1]/5h[8:1],,,1z5[4:1]/7s3[4:1],,,,,,,,,,
{8}6h[4:1]/2h[4:1],,,3/4,3/4,4/5,4/5,5p2[8:4]/6,
{1}5b/6bp3[8:3],
{16}2,1,2,1,,3x/8x,,1,2,,3x/8x,,2,1,,7x/8x,
,1x/6x,,7,8,,1x/6x,,8,7,8,7,1hx[8:1],,,2x/8x,
,8,1,,1h[16:1]/8h[16:1],,2h[16:1]/7h[16:1],,3/6,,{24}4,5,4,{16}5x,6x,7x,8x,
4b,,{24}B3,B2,E2,{16},8x,1x,8x,1x,8x,,,{32}27,36,45,,,,,,
{4}4b/5b<4[4:6],4,4,4,
5,6,7,{16}8,,,2/6,
{16},,78,,34,,2,1,,,56,,{24}4x,3x,2x,1x/8x,7x,6x,
{16}5x,5x,5x,5x,{24}5x,6x,7x,2x,3x,4x,{16}5,5b,,{24},,,{16}3b/7b,,,
45,,7x,,4,4,1x,,45,,7x,,4,4,1x,,
45,,2x,,5,5,8x,,45,,2x,,8,1x/7x,,,
7,,4x/5,,7,6,4/5x,,2,,5x/4,,2,3,5/4x,,
6,4,6,4,5,3,5,3,6,4,5,3,6,4,5,3,
6,2,7,1,8h[8:1],,2,,43,,5/2,,6,6,1,,
7/3,,56,,7,6,5/4,,2,,34,,2,3,4/5,,
6h[16:3],,,4h[16:3],,,2,,3h[16:3],,,5h[16:3],,,7,,
1,2,8,3,7,4,6,5,7,8,6,1,5,2,4,3,
{4}7x-5[8:1]*-4[8:1],7b,1/2-4[8:1]*-5[8:1],2b,
7/8V64[8:1]*v5[8:1],8b,1v4[8:1]*V35[8:1]/2,1b,
{16}7<4[8:1],8,7,8,7b,,,,2>5[8:1],1,2,1,2b,,,,
{16}7x,7x,4,6,3,5,2x,2x,5,3,6,4,7,1,8,2,
{16}1-5[8:1],,,8,,,7,,8-4[8:1],,,1,,,2,,
{16}2-6[8:1],,,1,,,8,,8w4b[8:1],,,,8b`Cf,,,,
{16}4x>5[8:5]/5x,,,6,,,7,,,,E1,,C,,E5,,
{16}4,5,4,5,3,6,2,7,{24}1x,8x,1x,8x,1x,8x,1x,8x,1x,8x,1x,8x,
{4}2bq5<4[4:15],,C,,
,,C,,
6hx[4:4],,,,
{4},,7,8,
1p6[4:7],,C,,
,,C,,
1h[4:7],,C,,
{16}6,,,7,,,8,,,,,,,,,,
{16}7v4[2:1],,,,,,1,2,3,,,,,,,,
2>5[2:1],,,,,,6,7,8,,,,,,,,
7h[8:1],,1,2,3/7h[8:1],,2,3,4/7h[8:1],,3,4,5/7h[8:1],,4,5,
6bx>1[4:7]/8h[8:1],,,,8h[8:1],,,,7h[8:1],,,,7h[8:1],,,,
6h[8:1],,,,5h[8:1],,,,4h[8:1],,,,3h[8:1],,,,
4b,,,,3/5,,3/5,,2/4,,2/4,,1/3,,1/3,,
{32}E2,E3,E4,E5,E6,E7,E8,E1,A1,A2,A3,A4,A5,A6,A7,A8,{16}A1/Cf,,,,,,1-5[8:1],2x/8x,
{16},,1b,,7,6,7,,5/6,,3/4,,1/2,,8-4[8:1],1x/7x,
,,8,,2,3,2,3h[16:3],,,1h[8:1],,7h[8:1],,5,4x/6hx[16:7],
,,5,,7,,1h[16:3],,,8,1,,2/6,,4,3/5,
6,7,8,1,5,6,7,8,1,5,4,5,2,6,5,6,
1,,3x/7x,,5,6,3x/7x,,1h[8:1],,6x,2,5,3,6x,4>1[16:3],
,,5x,,6,,7,6x/8x,,,3/7,,6,5,3/7,,
{16}1b-5[8:1]/8,,2/7b,,8,7,6,,1/8b-4[8:1],,2b/7,,1,2,3,,
5,4,5,4,6,5,6,5,{24}7,8,1,2,3,4,7,8,1,2,3,4,
{16}5/8,,E2/B2,,5,5,E8/B8,,5,,E1/B1,,5,5,E7/B7,5h[16:3],
,,E2/B1,,5,5,E8/B7,,5h[8:1],,E1/B1,,5b/8b,,,,
1h[8:1]/7h[8:1],,,2h[8:1]/6h[8:1],,,3/4h[8:3],,,,5,6,7,8,1,2,
3h[8:1]/4h[8:1],,,4h[8:1]/5h[8:1],,,5h[8:3]/6,,,,6,7,8,1,2,3,
4,,2,2,5,,3,3,7,,2,8,,8,2h[16:3],,
,7,2,6,2,5,2,4,2x/E3f,,,1x/E2f,,,E1f/8xpp4[8:10],,
,,,,,,,,,,,,,,6,7,
8x,,8x,,8x,,8x,,8-4b[8:1],4,8,4,8b/Cf,,,,
{16}1b,4,3,4,3,4,1b,3,2,3,2,3,1b-5b[8:1],4,2,5,
1bh[4:1],,,,,,2x/6x,3x/7x,4hx[8:1]/8hx[8:1],,,,1-5[8:1],,7,,
5,,,4h[8:1]/6h[8:1],,,3/7,,2,1,3,8,4,7,5,6,
4,5,3,5,2,5,1,5,2,6,2,7,2,8,2,1,
2x-4[8:1],,5,5,2x-8[8:1],,6,,2x-6[8:1],,7,,2x,,8,8,
{24}1,8,1,8,1,8,2,7,2,7,2,7,3,6,3,6,3,6,4x/5x,,,4x/5x,,,
{16}3,3,4,4,5,5,6,6,3,3,1,1,8,8,6,6,
3,8,5,6,8,7,2,5,{24}1,2,3,5,6,7,2,3,4,6,7,8,
{16}1/3,,E6/B6,,1,1,E4/B4,,1h[8:1],,E5/B5,,,,{24}1x/E3/B3,8x,7x,
{16},,8x/E6/B5,1x,2x,,E4/B3,,1h[8:2],,6x,5x,4x,3x,2x,1x,
8x<5[8:1],,5,5,8>3[8:1],,3,3,8,,4,4,{24}8,7,6,5,4,3,
{16}6b/2b,,,4x/Cf,,,8x/Cf,,3b/7b,,,1x/Cf,,,5x/Cf,,
3b/7b,,,,48,,48,,37,,37,,2-6b[56.667#24:1]/6-2b[56.667#24:1],37,48,15,
{2}2hx[4:1]/6hx[4:1],2bx/6bx,
{16}1b-3[8:1]/7b,,,5,1-6[8:1]/5,,,5,1-4[8:1]/5<8[8:1],,,,1/5,,,,
8-6[8:1]/2,,,4,8-3[8:1]/4,,,4,8-5[8:1]/4>1[8:1],,,,8/4,,,,
{16}1-3[8:1],,,5,1-5[8:1]/5,,6,,1>4[8:1],,7,,17,7,,4x/8,
,1,2,3,1/4h[4:1],2,3,,{24}5,6,7,4/8,1/5,2/6,{8}3x/7x,2xv7[8:1]/6x-3[8:1],
,{16}2bp8>4b[16:53]/6bp4<8b[16:53],Cf,{4},,,
