&title=ジェリーフィッシュは月を仰いで
&artist=Nuekawa
&first=0
&des=水公
&clock_count=4
&lv_5=14+
&inote_5=(224){1},
5<4[8:4],
{16}
7b,,5,6,5,,8-4[8:1],,,,8,,1,,2,,
3-5[8:1],,,,,,{24}E7,B7,B8,E1,,,E6,B5,B4,{16}E4,,7,,
7hx[8:2]/1hx[8:2],,,,,,2,3,4,,6,5,6,,4,,
8hx[8:2]/3hx[8:2],,,,,,2,,1x-4[8:1]/7x-4[8:1],,,,,,,,
6b/2b-6[8:1],,,,,,7,8,1h[8:1],,4,3,2h[8:1],,8,,8-6[8:1]/1,,
,,8/1-5[8:1],,,,1x/2hx[8:2],,,,,,3,4,
2x,,2,1,2,,83,,8,,85,,8,,74,,
6b/4b,3,2,1,7,8,7,8,6b,,{24}1,2,3,{16}4,,1,,
8b/2b,7,6,5,48,3,2,1,84,7,6,5,48,3,2,1,
8x/4x,5,6,7,84,1,2,3,48,5,6,7,84,1,2,3,
4x/8x,7,6,5,84,1,2,3,48,7,6,5,84,1,2,3,
8b/4x,,8b/4x,,8b/4x,,8b-6v1[8:2]/4x-2v5[8:2],,,,8b/4b,,,,,,
B7/Cf/B3,,,,,,,,,,,,,,,,
3h[8:8],,,,,,,,,,,,,,,,
4^6[8:2],,,,,,,,2^4[8:2],,,,,,,,
8q8[8:4],,,,,,,,,,,,,,,,
2h[8:3],,,,4,,4,,,,35,,,,64,,,,
75,,,,8h[8:3]/1,,,,2,,2,,B8,C,
B4/4qq4[8:3]*pp4[8:3],,,,,,,,,,,,,,4hx[8:7],,
,,,,,,5,,5h[8:2],,,,,,,,
7b/2b^5[8:1],,,,2,,1v6[8:1],,,,1,,2h[8:2],,,,
4^7[8:1],,,,4,,1q5[8:1],,,,1,,8h[8:2],,,,
2x,,2,,4,,3,,1x,,1,,5,,7,,
8xV26[8:2]/6x,,,,5,,5h[8:2],,,,7,8,1,2,3,4,
6b/5b-1[8:1],,,,8,,8h[8:2],,,,2,,2,3,4,,
6b,,6-2[8:1]/5,,,,6h[8:2],,,,1,8,7,6,5,4,
7b/3b,,7,,65,,6,,5b/2b,,{24}E3,B3,B4,{16}E5/8,,8,,
1b,7,1,7,2b,6,2,6,3b,5,3,5,2,3,4,5,
8b,,7,5,7,,8b,,6,5,6,,8b,1,8,1h[16:3],
,,3b^6[8:1],,,,,,8-4[8:1],,,,1/8,,,,
1b,,2,4,2,,1b,,3,4,3,,1b,8,1,8h[16:3],
,,6b^3[8:1],,,,,,1-5[8:1],,,,8/1,,,,
7b/4b,,6,5,6,,2b/5b,,3,4,3,,1b,8,1,8h[16:3],
,,{24}2b^7[8:1],3,4,{16}5,,,,4,3,2,1,8h[8:2]/5,,,,7b-4[8:1],,
7x,,4,,2b-5[8:1],,2x,,5,,7b-3[8:1],,7x,,
3,,1b-5[8:1],,1x,,5,,6b,7,8,1,6b,7,8,1,
2hx[8:2]/6hx[8:2],,,,,,,,,,3,,3,,,,
1hx[8:2]/6hx[8:2],,,,,,,,,,2,,2,,,,
8hx[8:2]/6hx[8:2],,,,,,,,,,1,,1,,,,
6x/7x,,5,,4,,1,,2,,3,,8h[8:2],,,,
5,,5,,7,,7,,8x/1x,,81,,62,,62,,
4x,5,4,5,3x,5,3,5,2x,6,2,6,1x,7,1,7,
{24}2x,3,4,5,6,7,8,1,2,3,4,5,8x,7,6,5,
4,3,2,1,8,7,6,5,{32}A3,D4,A4,D5,A5,D6,A6,D7,A7,D8,A8,D1,A1,D2,A2,D3,{2}Ch[8:4]f,
{4},,,,,,,,4h[8:8],,,,,,5,,6qq4[8:6],,,,2<6[8:6],,,,5pp3[8:6],,,,2h[8:4],,1h[8:4],,
{8}8b,,7<3[8:3],,,1,1,,2h[8:2],,1,1,,83,83,,7,,6>2[8:3],,,8,8,,1h[8:2],,8,8,,72,72,,
{12}7b,6,5,2,3,4,6,5,6,3,4,3,8b,7,6,1,2,3,7,5,7,2,4,2,6b,7,8,3,3,4,2b,1,8,6,6,5,8b,4,6,8b,4,2,8bw4b[8:1],,,,,,
{16}6b/2b,,{24}1,2,3,{16}4,,7-3[8:1],,,,73,,1-6[8:1]*-4[8:1],,1,,
1b,,,,73,,{24}E7,B6,B5,{16}1b,,1,7,2,6,3,5,
4xh[16:2],,6,6h[16:2],,2,2h[16:2],,,,13,,84,,75,,
6b/5b,4,3,2,8,1,8,1,7b,,71,62,53,4,3,2,
1b^6[8:1],,,,,,4,3,2x/5x,,25,,74,,74,,
8x-4[8:1]/1x,,,,8/2pp5[16:5],,,,1h[8:2]/2b,,,,,,8,7,
6x/4x,,3,4,3,,25,,3,4,3,,25,,25,,
7b/1b,,71,,82,,82,,6,5,6,5,7,4,8,3,
1b,,{24}1,8,7,{16}6,,2-6[8:1],,,,26,,8^3[8:1]*^5[8:1],,8,,
8b,,,,2x/6x,,{24}E3,B3,B4,{16}8b,7,6,5,48,3,2,1,
84,,2,4,2,4,1,4,8,,6,5,,3,4,,
8b^5[8:1]/2b,,,,,,1,1,4x,,3x/4x,,6x/5x,,8x/1x,,
2b-5[8:1],,7,6,2b-6[8:1],,8,7,2b,,1,8,
7x/3x,,1b/5bV74[8:2],,,,4,,2,,8bh[8:2],,,,3,2,1,8,7,6,
5x/4x,,3,4,3,,25,,3,4,3,,26,,26,,
4b/5b,,2,,34,,8,,7,5,6,5,7,5,6,5,
8b-4[8:1],,8,,2-5[8:1],,2,,7b-4[8:1],,7,,1-5[8:1],,1,,
6b-1[8:1],,6,,3-7[8:1],,3,,5b-8[8:1],,5,,1,,1,,
1b,2,3,4,1x,2,3,4,8b,7,6,5,8x,7,6,5,
8b/4b,3,2,1,84,37,26,15,8b/4b,,{24}2x,3x,4x,5hx[8:1],,,7x,6x,5x,
{16}4b/1bh[8:2],,,,,,7,8,7,,{24}E2,E3,E4,{16}E5,,8,,
8-6[8:1],,,,5,,4-8[8:1],,,,7,,7-3[8:1],,,,
7/1h[8:2],,,,4,,4-8[8:1],,,,4qq5[8:3],,,,6hx[8:4],,
,,,,,,,,,,5,,4,,3,,
2x-6[8:1]/8x,,,,5,,5-8[8:1],,,,5<3[8:3],,,,7x,,
,,,,6-3[8:1],,,,2-7[8:1],,,,8,,,,
8x/1x>6[8:2],,,,7,,7,,,,8,,8,,1,,
7x-4[8:1]/2x-5[8:1],,,,,,,,8x-3[8:1]/1x-6[8:1],,,,,,,,
7bh[8:2]/2b,,,,,,2,1,2,,{24}E8,E7,E6,{16}E5,,1,,
1-3[8:1],,,,4,,5-1[8:1],,,,2,,2-6[8:1],,,,
2/8h[8:2],,,,5,,5-1[8:1],,,,5pp4[8:3],,,,3hx[8:2],,
,,,,2-6[8:1],,,,1-5[8:1],,,,8-4[8:1],,,,
7x,,,,6,,6p2[8:1],,,,4-1[8:1],,,,8,,
7x-4[8:1],,,,8-3[8:1],,,,5h[8:2],,,,4,3,2,1,
7x/8x,,7,,7,,7,,6x/2x,,2,,2,,2,,
4x/3x,5,6,7,4x,3,2,1,5x,6,7,8,5x,4,3,2,
7b/1b,,7,8,7,,6h[8:2],,,,5,,4,,3,,
2h[8:2],,,,,,4,3,4,E6,E7,E8,E1,E2,E3,E4,
2h[8:1],,4,3h[8:1],,5,4h[8:2],,,,5,,6,,7,,
8h[8:2],,1,,2,,3,,4h[8:2],,2,1,8,7,6,5,
4b/3b,,,,,,6,5,6,,{24}4,5,4,{16}5,,3x,,
2b,,2,,1,,1,,8h[8:2],,,,,,74,,
6b/5b,,7,,7,,25,,
3b/4b,,2,,2,,54,,
1b^4[8:1]/8b^5[8:1],,,,8b/1b,,,,2,7,2,7,1,6,1,6,
8b,,{24}8,1,2,{16}3,,7b-4[8:1]b/5x,,6,5,7x,,1x-5b[8:1],,82,,
1x,,6,7,8h[8:1],,4,3,52,6,7,8,2,2,1,1,
3b,,3,4,2,5,1,6,8,,7,78,,2,12,,
4b^7b[8:1]/3b,,,,,,8,1,8x/2x,,{24}8,7,6,{16}5x/4x,,5x/4x,,
2b-5[8:1],,5,5,2b-6b[8:1],,7,7,2b,,1,1,4b,,8bh[8:2]/2b,,
,,5,6,7x/1x,,5b/3bh[8:2],,,,2,1,8b,71,62,53,
4b,,6,5,6,,71,,3,4,3,,82,,54,,
7b/1b,,1,,13,,1,,2,6,2,6,4,5,4,5,
3b-8b[8:1],,3,,3x/6b-1[8:1],,6,,2b-5[8:1]b/6x,,2,,7b-4[8:1]/2x,,7,,
7x/1b^4b[8:1],,1,,1x/6b^1b[8:1],,6,,6x/3b^6b[8:1],,3,,3x/7b,,7,,
1b,8,1,8,3b,4,3,4,1b,8,1,8,5b,6,5,6,
3b,7,4,5,2b,7,4,5,1b,7,4,5,8b,7,4,5,
1b,2,3,4,7,6,5,4,1,2,3,4,7,6,5,4,
2,3,4,5,8,7,6,5,2,3,4,5,8,7,6,5,
1b,2,3,4,7,6,5,4,1,2,3,4,7,6,5,4,
2,3,4,5,8,7,6,5,2,3,4,5,8,7,6,5,
4b/3b,,43,,26,,26,,54,,54,,73,,73,,
6b/1b,,61,,38,,38,,52,,52,,74,,74,,
1b,5,3,7,2,6,4,8,1b,5,3,7,2,6,4,8,
7x/1b,,7x/1b,,7x/1b,,7xqq8[8:2]/1bpp8b[8:2],,,,7b/1b,,,,,,
A4f,,,,,,,,,,,,,,,,
,,,,,,,,,,,,,,,,
,,,,,,,,,,,,,,,,
