&title=斜陽
&artist=ヨルシカ feat.n-buna × suis
&first=0.02
&des=woxxow
&lv_5=13
&inote_5=(124){1},
{16}3h[16:6]/4,,,,,,B5,,,,,,,,,,
{16}3h[16:6]/4,,,,,,B4,,,,,,,,,,
{16}3h[16:6]/4,,,,,,B3,,,,,,,,,,
{16}3h[16:6]/4,,,,,,B2,,,,,,,,,,
{16}7h[16:6]/5,,,,,,B1,,,,,,,,,,
{16}7h[16:6]/5,,,,,,B8,,,,,,,,,,
{16}7h[16:6]/5,,,,,,B7,,,,,,,,,,
{16}7h[16:6]/5,,,,,,Cf,,,,73,,1,8,1,,
{16}2x/8x,,3xh[8:1]/7xh[8:1],,,,3,5,,5,4,,6,,1xh[8:1]/7xh[8:1],,
{16},,2x/8x,,7,5,6,4,,3,5,,2,1,2,,
{16}2x/8x,,3xh[8:1]/7xh[8:1],,,,6,4,,4,5,,3,,2xh[8:1]/4xh[8:1],,
{16},,3xh[8:1]/5xh[8:1],,,,4bxh[8:1]/6bxh[8:1],,,,3,,8,1,8,,
{16}7x/1x,,6xh[8:1]/2xh[8:1],,,,6,4,,4,5,,3,,8xh[8:1]/2xh[8:1],,
{16},,7x/1x,,2,4,3,5,,6,4,,7,8,7,,
{16}7x/1x,,6xh[8:1]/2xh[8:1],,,,3,5,,5,4,,6,,7xh[4:1]/5xh[8:1],,
{16},,5,,4,,3,4,2,5,2,,37,,46,,
{16}5-7[64:7],,,,4,,,,5-7[64:7],,,,8,,1,,
{16}5-7[64:7],,,,,,4,,5-7[64:7],,,,,,1,,
{16}5-7[64:7],,,,1^4b[8:1],,,,5-7[64:7],,,,2,,1^4b[8:1],,
{16}5-7[64:7],,,,,,2,,5-7[64:7],,2,,3,,4,,
{16}4^1b[8:1],,,,7-3[8:1],,,,4^1b[8:1],,,,6,,7-3[8:1],,
{16}4^1b[8:1],,,,,,5,,4^1[8:1],,,,,,8,,
{16}4^1[8:1],,,,8^5[8:1],,,,4^1[8:1],,,,6,,7^4[8:1],,
{16}4^1[8:1],,,,1,,,,{24}8,,1,8,,,{16}3b/6b,,,,
{16}8xh[4:1]/1xh[4:1],,,,,,2xh[4:1]/7xh[4:1],,,,,,3xh[4:4]/6xh[4:4],,,,
{16},,,,,,,,,,,,,,,,
{16}2xh[4:1]/7xh[4:1],,,,,,3xh[4:1]/6xh[4:1],,,,,,4xh[4:1]/5xh[4:1],,,,
{16},,,,4,,,,,,,,4>5[3:1],,Cf,,
{16},,,,,,8,,74,,47,,25,,25,,
{16}1x,,2x-6[8:1]b/8x,,3x/7x,,,,,,8,,5pp7[8:1]/7,,46,,
{16}3bx/5bx,,2,,4/6^3[8:1],,7,5,6,,2,,3qq8[8:3],4,2,,
{16}8x,,7,,6,,5,5,1q5[8:1],,6,6,,8,8,,
{16}7x/5x,,6q4[32:7],,5,,4p6[32:7],,,,2,,1-5[8:1],,1,,
{16}7x,,6qq6[4:1],,3h[8:3],,6pp6b[4:1],,,,,,4>8[32:5],,3,,
{16}5bx/4bx,,6,,2^5[8:1]/4,,1,8,2,,7,,6pp1b[8:3],5,7,,
{16}1x,,2,,3,,4,4,8p4[8:1],,3,3,,1,1,,
{16}2x/4x,,3q7[8:1],,2,,1h[4:1],,,,8,2/7pp6b[16:5],3pp2[16:4]/6,,Cf,,
{16},,,,,,1bh[4:1]/5bh[4:1],,,,,,1,8,1,,
{16}2x/8x,,3xh[8:1]/7xh[8:1],,,,3^8[8:1],5,,5,3,,6,,1xh[8:1]/7xh[8:1],,
{16},,2x/8x,,7,5,6^1[8:1],5,,4,6,,2,2,8,,
{16}7xs3[4:1],,3x,,3s7[4:1],,2h[4:1],,,,,,3,,8x/4x,,
{16}7,,1x/6x,,2>7[6:1],,5xbh[4:1],,,,,,8,1,8,,
{16}7x/1x,,6xh[8:1]/2xh[8:1],,,,6^1[8:1],4,,4,6,,3,,8xh[8:1]/2xh[8:1],,
{16},,7x/1x,,2,4,3^8[8:1],4,,5,3,,7,7,1,,
{16}8v5b[4:3],,,,,,C,,,,,,,,,,
{16}2v4[4:3],,,,,,{64},,C,,,,,,,,,,,,,,,,,,,,,,,,,,,,,,,,,,,,,,
