&title=Tru'nembra
&artist=Team Grimoire & 穴山大輔
&first=0.087
&des=n²/TraNsforM "AIR"
&lv_5=14+
&inote_5=(195){1},{4},,,4h[4:1],
{4}7h[1:1],,1h[8:5],,,8h[4:1],2h[4:3],5h[8:5],
,,6h[4:1],3h[8:3],8h[4:1],4h[4:1],7h[4:1],{8}1h[16:1],1h[16:1],
{8}7h[8:1],1h[8:1],8h[8:1],2h[8:1],7h[8:1],2h[8:1],Ch[8:1],2h[8:1],
8h[8:1],7h[8:1],6h[8:1],5h[8:1],1h[8:1],2h[8:1],3h[8:1],4h[8:1],
6h[8:1],1h[8:1],8h[8:1],2h[8:1],7h[8:1],2h[8:1],6h[8:1],3h[8:1],
5h[8:1],6h[8:1],7h[8:1],8h[8:1],4h[8:1],3h[8:1],2h[8:1],1h[8:1],
{12}8h[12:1],1h[12:1],7h[12:1],1h[12:1],8h[12:1],2h[12:1],{2}7h[8:3],
{12}Ch[12:1]/E8,E1,E2,{8}6h[16:1],6h[16:1],1h[4:1],,{16}B6,B5,,,
{8}3h[8:1],7h[8:1],4h[8:1],5h[16:1],Ch[4:1],,7h[8:1],2h[8:1],
{2}8h[2:1],{48},,,A3,,E7,,,C,B8,,,{12}4h[12:1],5h[12:1],3h[12:1],
{8}6h[4:1],,4h[8:1],Ch[8:1],2h[8:1],1h[8:1],8h[8:1],7h[8:1],
{4}1h[2:1],4h,8h[2:1],6h,{8}2h[4:1],C,C,C,2h[8:1],{32}E7,E8,E1,E2,E3,E4,E5,E6,{48}Chf[8:9]`B7,,B2,,,B3,{1}B6,,
{8}6b-8[8:1]/5,6/5b,,3b-1[8:1],3/4b,,6bpp1[2:1],6/5b,
,5,4,3,2,,2b-5[8:1]/1,2/1b,,
7b-4[8:1],7/8b,,2bpp5[2:1],2/1b,,1,
8,7,6,,3b^8[8:1]/4,2/5b,,6b^1[8:1],
7/4b,,3bqq8[8:3],2/5b,,4,5,6,
7,,7b^4[8:1]/8,6/1b,,2b^5[8:1],3/8b,,
7bqq4[8:3],6/1b,,8,1,2,3,4,
5x/3xh[8:1],5,5/3h[8:1],5,5/3h[8:1],5,5/3h[8:1],5,
4/6h[8:1],4,4/6h[8:1],4,4/6h[8:1],4,4/6h[8:1],4,
5xh[16:1]/3x,5h[16:1],5h[16:1]/3,5h[16:1],6h[16:1]/2,6h[16:1],6h[16:1]/2,6h[16:1],
4h[16:1]/6,4h[16:1],4h[16:1]/6,4h[16:1],3h[16:1]/7,3h[16:1],3h[16:1]/7,3h[16:1],
5x/3x,53,53,53,64,64,64,64,
8x/2x,82,82,82,71,71,71,71,
{16}8x,1,8,1,8,1,8,1,7,2,7,2,7,2,7,2,
{16}7bx/A1,E1,E8,A7,D2,B1,B7,D7,D3,B3,B5,D6,A3,E4,E5,A5,
1bx/A6,A7,A8,A1,A2,A3,A4,A5,1x,8x,7x,6x,5x,4x,3x,2x,
1bx/6bx,,7,8,7,8,6,,3,4,3,4,2,,5,,
1,2,8,7,2,3,7,6,4,3,2,1,5,6,7,8,
1x/2x,,8,8,8,,1,1,1,,7,7,7,,2,,
6,4,6,4,7,3,7,3,{12}8,7,6,4,3,2,
{4}1bx/5b,{12}5,5,5,3,3,3,7,7,7,
1,1,1,{16}7,8,1,2,3,4,5,6,78,1,2,3,
{4}4bx/6bx,{16}6,5,7bx,4,8,3,1,2,8bx,3,7,4,
6,5,6,4,5,4,5,3,4bx,,5x,6bx/4x,,1x,8x/2bx,,
{16}8,3,7,3,6,2,5,2,
{4}1bx/4b,{16}7,5,7,5,8,7,6,5,2,3,4,5,1,2,3,4,8,1,2,3,
{16}4/8b,,6,5,6,,2/5,,3,4,3,,6,5,7,4,8-2[10:1],,3,4,8-6[10:1],,3,4,8b,,,2b,,,6,5,
{4}7b/4b,{16}2,4,2,4,1,2,3,4,7,6,5,4,8,1,2,5,6,7,1,2,3,6,7,8,{24}1x-5[8:1],2,3,4,5,6,
{12}7bx/1b,,8h[12:1],,2h[12:1]/C,,6,4,8,3,5,1,
{16}7x/2x,,6,5,7,3,4,2,1s5[8:1]/8z4[8:1],,,,18,,,,
{16}7-5[8:1],,5-1[8:1],,7,,2,3,4,,8x-3-6[4:1],,2x-7[8:1],,8,,2,,,,
{24}8x,1,2,3,6x,7,{8}8-4[8:1],,{16}2/8,,3,3,4x,,2,,{16}7x,4,6,2x,5,3,{8}4b>5[4:1],,,,,
{16}2-4[8:1],,4-8[8:1],,2,,7,6,5,,1x-4[8:1],,,,1x-6[8:1],,,,
{16}1x,,4-8-6[4:1],,3,,2/4-1[8:1],,,,4x,,{24}8,7,6,1,2,3,8b,,,
{8}1,24,35,6,
{8}E3,E7,Ch[32:1],,B6/B3,,{16}4,5,6,7,
{8}8bx/2b,3-1[8:1],4-8[8:1],3,4,1x-5[8:1],,
{8}1,{24}8x-4[8:1],7,6,4x,3,2,{16}8b,,1h[16:1],,1,,2-5[8:1],,
{24}5x-1[8:1],6,7,{16}2,,8v3[8:1],,7<4[8:1],,8b,,7b,,
{16}2,,2b-5[8:1],,3,4,2,,6,,7b-5[8:1],,8,1,7,,1,,{24}1x,2,3,{8}4-2[8:1],5-7[8:1],4-1[8:1],5,4,{24}8x,7,6,
{8}5,5,{16}3,4,{8}2x-6[8:1],1x-5[8:1],2x>5[8:1],1x<6[8:1],2b,1b,
{32}2b,3,4,5,1b,8,7,6,{8}3x,
{1}8b<4[4:3],1>5[4:3],
{2}8<5[2:1],5-1[2:1],{4}1qq5[4:3],2,3,4,
{2}4q8[2:1],8q4[2:1],{4}4qq1[4:3],5,6,7,
{2}8pp2[2:1],2pp4[2:1],4p7[2:1]*q1[2:1],,
{2}8-6-2[2:1],2-4-8[2:1]*-4-8[2:1],8<5-1>4[4:3]b,1,
{2}1-3-7[2:1],7-5-1[2:1]*-5-1[2:1],1>4-8<5[4:3]b,8,
{2}8qq4[4:3],,1pp5[4:3],,
{2}8>6[4:3],4<2[4:3],8>6[4:3],,Ch[1:2]f,,,,E7/B6/B7/E3/B2/B3,,,,
(200){8}1b,8v3[8:1],7,6,5,4v6[8:1],2,1,8,7,5x/6x,3x/4x,1xh[8:1]/2xh[8:1],,
(210)8b,1v6[8:1],2,3,4,5v3[8:1],7,8,1,2,4xh[8:1]/3xh[8:1],,6xh[8:1]/5xh[8:1],,
(220)5b,4v7[8:1],3,2,1,8,6v1[8:1],5,4,3,2,7x/8x,6x/7x,5x/6x,
(230)4,5v2[8:1],6,7,8,1v7[8:1],3,4,5,6,8x/7x,8x/1x,2x/1x,,
(240)2b/5h[8:1],2,2/6h[8:1],1,1/5h[8:1],1,8/6h[8:1],8h[8:1],5h[8:1],8,1/6h[8:1],2,3/5h,,
(250)7b/4h[8:1],7,7/3h[8:1],8,8h[8:1]/4h[8:1],,1/3h[8:1],1,4h[8:1]/1,8,7h[8:1]/5h[8:1],,{16}7/5h,4,3,2,
(260){8}6b/1h[8:1],6h[8:1],2h[8:1],5,5h[8:1]/1h[8:1],,4/2h[8:1],4h[8:1],1h[8:1],5h[8:1],2h[8:1],,{16}4h,5,6,7,
(270){8}3b/8h[8:1],3h[8:1],7h[8:1],4,4h[8:1]/8h[8:1],,5/7h[8:1],5h[8:1],8h[8:1],4h[8:1],(300){16}7,,2,,,,
{8}1h[8:1]/8h[8:1],,1-3[8:1]/8-6[8:1],18,18,,,2h[8:1]/7h[8:1],,2h[8:1]/7h[8:1],,,6-4[8:1]/3-5[8:1],63,63,,,4h[8:1]/5h[8:1],,4h[8:1]/5h[8:1],,
(250){12}4b/5b,,,,,,3,5,4
,6,3,7,{12}2,7,3,6,4,5,4,6,3,6,2,7,
{16}1,2,8,7,1,2,8,7,1,2,8,7,1,2,8,7,
2,3,7,6,2,3,7,6,2,3,7,6,2,3,7,6,
{24}2x,E3,B3,7x,E8,B8,2x,E2,B1,7x,E7,B6,{32}A1,B1,C,B5,
(1000){1}4xp6>1[4:31]/5xq3<8[4:31]/D5f/E5,,,,,,,,,{16},,,,,,
(215){1}7h[2:3]/2h[2:3],,
{16}5b/3b,,2,4,3,,7,5,6,,64,,2,5,3,4,
1,,7,8,,2,1,,8,7,6,5,7,6,5,4,
3x/8x,,12,,,,87,16,25,,6h[4:1]/3h[16:5],,,,,,
7,5,6,4,5,3,4,2,5,6,7,8,5,4,3,2,
1x/7x,,8,2,8,,3h[8:1],,7,6,5,4,3,2,1,,
84,,7,5,6,5,7,,2,4,3,4,2,,1h[16:1],,
8,1,7,1,8,7,6,5,1,4,2,5,1,2,3,4,
6,4,6,4,7,3,7,3,{12}8x,2,7,3x,6,4,
(220)5bx,,,{16}E1,B1,B2,E3,E8,B8,B1,E2,E7,B7,B8,E1,
7,6,5,1,2,3,8,7,3/6-3[8:1]b,,,,,,,,
{16}1b-3[8:1],,,,1,,6,7,8-4[8:1],,4-6[8:1],,8,,3,,2-6[8:1],,6-3[8:1],,2,,7,,
{8}8bx-4[8:1],1bx-3[8:1],8b,1b,
{8}7b-4[8:1],7,7/2b-6[8:1],2,2/8b-4[8:1],8,8/1b-5[8:1],,
{8}1/7b-3[8:1],7,7/2b-6[8:1],2,2,,{16}7x,8,1,2,
{8}3b/7b,3/7,,2b/6b,2/6,,8/4,8/4,,7/4,6/3,5/2,4/1s5[8:1]b,,8/1,,
{8},5/6<1[8:1],5/7,,3>8[8:1],4/2,,7,
{16}1,2h,38,7h,62,3h,48,7h,61,2h,37,6h,51,2h,37,6h,
{4}5/1b,
||Bí
mẹ
ý
tưởng
r
:CMN:
{20}7/2b,3,4,5,6,7x,8,1,2,3,4x,5,6,7,8,1x,2,3,4,5,6x,7,8,1,2,
{24}6b,7,8,1,2,3,4x,5,6,7,8,1,2x,3,4,5,6,7,8x,1,2,3,4,5,
{26}2b,3,4,5,6,7,8,1,2,3,4,5,6,7x,8,1,2,3,4,5,6,7,8,1,2,3,
{8}4b,7b,5b,8b,
{2}2b>3-1-4-8-5-7<6[4:40],,,8h[4:3],,{4}7h[8:3],,6,6h[16:3],,{8}6h[16:7],,,,,5,,5h[4:2],,,,,,4,,,,,,E4,,,,{16}E3,,,,,,,A2,,,B2,,,,,E2,,,,,,,,,,,,,,,B3,,,,,E5,,,
{1}Ch[1:4],,,,
