&title=ふわふわ時間@MMFC10
&artist=放課後ティータイム
&first=0
&des=I'm a teapot
&lv_5=13
&inote_5=(180){1},,
{4}5h[4:15]/E1,E1,E1,E1,E1,E1,E1,E1,E1,E1,E1,E1,E1,E1,E1,C,
{4}3b-1[8:1]/5b,7,4^1[8:1]/5,7,5x^3[8:1]/6,8,3x^5[8:1]/5,7,
{4}6-8[8:1]/4,2,5^8[8:1]/4,2,4x^6[8:1]/3,1,6x^4[8:1]/4,2,
{8}1h[4:1]/4x,,5,,4/6h[4:1],3,2,,
{8}3h[4:1]/4,,8,,3h[4:1]/5,6,7,,
{8}2^5[8:1]/5,,7,,6^1[8:1],6,4,2h[4:1],
{8},4h[4:1],,6h[4:1],,8,8,,
{8}7h[4:1]/5,,1,,5/2h[4:1],4,3,,
{8}2h[4:1]/4,,8,,4/7h[4:1],5,6,,
{8}2^5[4:1],,5^8[4:1],,8^3[4:1],,4,4,
{8}5,6,7/3-8[8:1],,4,,6-3[8:1],,
{8}2h[8:3],,4,4-8b[8:1],,3,3-6b[8:1],,
{8}7h[8:3],,5,5-1[8:1],,6,6-3[8:1],,
{8}2h[8:3],,4,4v1b[8:1],,3,3^6b[8:1],,
{8}7h[8:3],,5,5v8[8:1],,6,6,,
{8}1>5[4:1],,5<1[4:1],,1>5[4:1],,5,,
{8}8-4[8:1],,1-5[8:1],,7-4[8:1],,2-5[8:1],,
{8}6^8[8:1],,4,,3,3,5,2-8[8:1]/6,,4,,7,,
{8}3,3-6[8:1],,
{8}7h[8:3],,5,5p1b[8:1],,6,6-3b[8:1],,
{8}2h[8:3],,4,4q8[8:1],,3,3,,
{4}6^1[8:1],2h[4:1],3q7[8:1],2,1^4[8:1],1^6[8:1],1-5[8:1],1,
{8}4/6-8[8:1],,5,,6^1[8:1]/5,4,3,,
{8}5/3-1[8:1],,4,,3^8[8:1]/4,5,6,,
{8}5x/7x,8,1,2x/4x,1,8,2x/7x,36,
{8}4x-1[8:1]/5x-8[8:1],4x/5x,4bx/5bx,,
{4}3-8b[8:1]/7-4b[8:1],,
{8}1^4[8:1]/5,,1/4,6,8-5-3[4:1],,38,1,7xq3[8:1],,4x/7x,6,8h[4:1],,3,2,
{8}1/8^5[4:1],,5^2[4:1],,2^7[4:1],,7,,3-1[8:1],,3/5-7[8:1],,5/4-2[8:1],,64,,
{8}2x>6[4:1]/8,,6<2[4:1],,2>6[4:1],,6,,7V53[4:1],,3V17[4:1],,7,,3,,
{8}3/4-8[8:1],5,46,,5-1[8:1]/6,4,35,,28,3,45,6,6b-1b[8:1]/2b-5b[8:1],,,,
{8}8bx^5[8:1]/4bx,,8/5,3,1-6[8:1],,17,5,3q7[8:1],,38,2,4h[4:1],,6,7,
{8}8/1^4[8:1],,1^6[8:1],,1^4[8:1],,1-5b[8:1],,1,,46,,3^8[8:1]/5^8[8:1],,,,
{8}1x/6^1[8:1],,4,,3^8[8:1]/8x,,5,,
{4}7b-1-5-3b[2:1],,2b,,
{4}1-3[8:1]/4,1-7[8:1]/6,1/5-3[8:1],5-7[8:1]/8,52,
{4}4^2b[8:1],4p8b[8:1]/6,4^1b[8:1]/5,4/7,8-6[8:1]/1,8x-4[8:1]/2,8x-6[8:1]/1,3/8x,
{4}4^2b[8:1]/5x,4p8b[8:1]/6,4^1b[8:1]/5,4/7,8-6[8:1]/1,8x-4[8:1]/2,8x-6[8:1]/1,3/8x,
{4}4^2b[8:1]/5x,4p8b[8:1]/6,4^1b[8:1]/5,4/7,8-6[8:1]/1,8x-4[8:1]/2,8x/1,
{8}3b/5b,2b/6b,,,4b/6b,3b/7b,,,
{4}E1/5hx[8:5],B2,B4,E6,A7/4xh[8:5],E1,B2,B4,E6/5xh[8:5],A7,E1,B2,B4/4xh[8:5],E6,A7,E1,
{4}1^3[8:1]/7,5,4/6h[8:1],8,
{4}5^3[8:1]/7,6,3x/5h[8:1],1,
{4}8^6[8:1]/2,4,5/3h[8:1],1,
{4}4^6[8:1]/2,3,6x/4h[8:1],8,
{4}5h[4:1]/3,7,6/4h[4:1],2,
{8}46,4^1[8:1]/6,,4/5^8[8:1],,35,,2bx/6bx,,
{8}3,24,,5^3[8:1],6,7,,2-6^4-1[8:3],,6,,
{8}7,6,5,4/2-6[8:1],,6,7h[4:1],,6,5,4,36,5,4,3,24,1/5^8[8:1],,
{8}2,2b-4[8:1],,2/6-8[8:1],,6/2-6[8:1],,8,7h[4:1],5,4,2h[4:1],4,5,46,37,28,,
{12}1>5[16:3],,,6x,7x,8x,1xV75[16:3],,,{8}4,2,8V24[16:3],,{12}5x,6x,7x,8x<4[16:3],,,{8}4,2,
{1}8bx-4b[4:3],,
{1}4qq4^7q4b[1:7],,,,,,,
{4},,5,6,
{1}7^2[4:3],3^6[4:3],7V13v5[8:9],{8}4,,,,,34,25,,
{8}6h[4:1],5,5,3h[4:1],4,4,5,6,
{8}7h[4:1],5,5,2h[4:1],4,4,5,6,
{8}4bx/7,,12,3/8bx,,78,1bx/6,,34,2/5bx,,56,4bx/7,,27,,
{8}3h[8:3],,,4h[8:3],,,5h[4:1],,6,4/7-5[8:1],,7/2-4[8:1],,2/6,,5,
{8}4/6^8[8:1],,6^4[8:1],,2,2h[4:1],,4,4/2,,5/1,,6,56,,
{8}7,7/5,,8,8/4,,1,1h[4:1]/3,,3p7[8:1],,5,5,,
{8}4,3,4/2^4[8:1],,4,5,,6-3[8:1],,1,,4,5/3-1[8:1],,8,8,
{8},8-4b[8:1]/2-6b[8:1],,28,,,,
{8}4,4^1[8:1],,1,8-5[8:1],,5,4,3-7[8:1],,8,,
{8}65,7bx/4,,43,5/2bx,,87,1bx/6,,21,1b/2b,,3b/4b,,5b/6b,,8b/7b-1-5-3b[4:3],,,,,,,,,,1b,,
{4}3b-6b[8:1]/7b-2b[8:1],,
{8}1bV75[8:1]/5,,1/5,3,1-4-6[4:1],,16,8,2xp5[8:1],,52,3,1h[4:1],,6,7,
{8}8/1^4[4:1],,4^7[4:1],,7^2[4:1],,2,,4-7[8:1],,4/3-8[8:1],,35,,26,,
{8}7<3[4:1]/1,,3>7[4:1],,7<3[4:1],,3,,2V46[4:1],,6V82[4:1],,2,,6,,
{8}6/5-1[8:1],4,53,,4-8[8:1]/3,5,64,,71,6,54,3,6b-3b[8:1]/2b-7b[8:1],,,,
{8}8bV24[8:1]/4,,84,6,8-3[8:1],,82,4,6p1[8:1],,61,7,5h[4:1],,3,2,
{8}1/8^5[8:1],,8^3[8:1],,8^5[8:1],,8w4b[8:1],,8,,26,,6^1[8:1]/4^1[8:1],,,,
{8}1x/6^1[8:1],,4,,3^8[8:1]/8x,,5,,
{4}7b-2b[8:1]*-4[8:1],,3b-8[8:1]*-6b[8:1],,
{4}1x-3[8:1]/4x,1-7[8:1]/6,1/5-3[8:1],5-7[8:1]/8,52,
{4}4^2b[8:1],4p8b[8:1]/6,4^1b[8:1]/5,4/7,8-6[8:1]/1,8x-4[8:1]/2,8x-6[8:1]/1,3/8x,
{4}4^2b[8:1]/5x,4p8b[8:1]/6,4^1b[8:1]/5,4/7,8-6[8:1]/1,8x-4[8:1]/2,8x-6[8:1]/1,3/8x,
{4}4^2b[8:1]/5x,4p8b[8:1]/6,4^1b[8:1]/5,4/7,8-6[8:1]/1,8x-4[8:1]/2,8x/1,
{8}3b/5b,1b/7b,,,4b/6b,2b/8b,,,
{1}4b>5b[4:23]/5b,,,,,,{4},Cf/B2/B3/B6/B7/E3/E7/E1/E5,
