&title=たぶん
&artist=YOASOBI
&first=0
&des=心白-HW
&des_5=心白-HW
&lv_5=13+
&inote_5=(90){4},,,,{2}1>4[4:1],
8<5[4:1],
{16}1>1[2:1],{8},{16}5,{4}5V71[4:1],{2},8<5[4:1],
1>4[4:1],
{16}8V63[4:1],{8},{16}3,{4}3V15[4:1],4h[8:1],{8}3h[1:1],6,
{1}6h[1:1],
{4}3>6<3[2:1],Ch[2:1],,,{8}3h[4:3]/4h[4:1],
{4},{8}4h[4:1],{4},,{8}6h[4:3]/5h[4:1],
{4},{8}5h[4:1],{4},{24}C,{16},,{24},4,
{12}4qq2[8:1],{24}8,8-5[8:1],{16},{48},{8}4,8,{12}1s5[8:1],1,{4},{24},6,
{12}6-1[8:1],{24}2,2-4[8:1],{16},{48},{8}6,2,{12}8p6[8:1],8,{4},{24},3,
{12}3-8[8:1],{24}7,7-4[8:1],{16},{48},{8}3,7,{12}1v4[8:1],1,{4},{24},5,
{12}5V71[8:1],{24}3,3-7[8:1],{16},{48},{8}5,3,1<5[8:1],5,4,3,
2>5[8:1],7,2-6[8:1],7<4[8:1],2,7-3[8:1],2,7,
{4}2h[4:1],{8}B8/B7/A7/E8,3h[8:3]/6h[4:1],{4},6,
{8}7<4[8:1],2,7-3[8:1],2>5[8:1],7,2-6[8:1],7,2,
{4}7h[4:1],{8}B1/E2/B2/A2,{24}6/3,,6/3,{4},{12}1-5[8:1],{24}1,8-6[8:1],,8,
{8}1b-3[8:1],8-4[8:1],1-5-1[16:3],8,{4}1,{8}8-4[8:1],1-3[8:1],
8-6[8:1],1-5[8:1],8-4-8[16:3],1,8,{4},{8}1-5[8:1],
2,1/7-4[8:1],6,7/2-6[8:1],3,2/5-8[8:1],4,5/1-5[8:1],
1<6[8:1],1>4[8:1],1qq5[4:1]*pp5[4:1],1,1,{4},{24}4,,4,
{8}6-8[8:1],2-4[8:1],6v1[8:1],2v5[8:1],6,2,{16},{48},{24}8,8-6[8:1],,1,
{8}1v3[8:1],8,1v4[8:1],6,1v6[8:1],7,1v7[8:1],5,
{24}1,{16},,{24},8,{12}2,{24}7,1,{16},{48},{2}8-4[8:1]/2-6[8:1],
{8}3h[4:3]/5h[4:1],{4},{8}5h[4:1],{4},,{8}6h[4:3]/4h[4:1],
{4},{8}4h[4:1],{4},,{8}3h[4:3]/4h[4:1],
{4},{8}5h[4:1],{4},,5h[24:5]/6h[24:5],
6h[24:5]/4h[24:5],6h[8:1]/3h[8:1],{24}C,{16},,{24},4,
{12}4-1[8:1],{24}8,8<5[8:1],{16},{48},{8}4,8,{12}1s5[8:1],1,{4},{24},6,
{12}6-8[8:1],{24}2,2-5[8:1],{16},{48},{8}6,2,{12}8p5[8:1],8,{4},{24},3,
{12}3v8[8:1],{24}7,7-4[8:1],{16},{48},{8}3,7,{12}1pp4[8:1],1,{4},{24},5,
{12}5v8[8:1],{24}3,3v6[8:1],{16},{48},{8}5,3,8<4[8:1],4,3,2,
1V35[8:1],7,1-5[8:1],7V53[8:1],1,7-3[8:1],1,7,
{4}2h[4:1],{8}B6/B5/A6/E6,3h[8:3]/7h[4:1],{4},7,
{8}8V64[8:1],2,8-4[8:1],2V46[8:1],8,2-6[8:1],8,2,
{4}7h[4:1],{8}B3/B4/A3/E4,{24}6/2,,6/2,{4},{12}B3/B4/E4,{24}5,5,,2,
{8}2x-6[8:1],6-2[8:1],2>7>3[4:1],7xV13[8:1],{4},{12}D3,{24}4,4,,7,
{8}7x-3[8:1],3-7[8:1],7<2<6[4:1],2xV86[8:1],{4},{12}D7,{24}5,5,,1,
{8}1x>5[8:1],5<1[8:1],1q7[8:1],7xq5[8:1],{4},{12}B6,{24}5,4,,4,
{12}3,3h[8:1],{24},4,{12}5,{24}5,6,,6,{12}7,{24}7,8,,8,{8}1w5[8:1],8/2,
{24}1,{16},,{24},2,{12}2-7[8:1],{24}6,6-3[8:1],{16},{48},{8}2-4[8:1],6-8[8:1],2-6[8:1],6,
{4}2,{8}6/5,2/1,3/4,7/8,6/1,2/5,
3-1[8:1],4-8[8:1],3,4,2-5[8:1],1-6[8:1],2,1,
{24}4h,{16},,{24},5h[24:1],{16},,,{48},{24}6h[24:1],{8}2,7,1-6[8:1],8-3[8:1],
1b>4[8:1],8<5[8:1],1-5-1[16:3],8,{4}1,{8}8-3[8:1],1-6[8:1],
8<5[8:1],1>4[8:1],8-4-8[16:3],1,8,{4},{8}7/2,
1v4[8:1],4>1[8:1],6,7,8v5[8:1],5<8[8:1],2,3,
4>8[8:1],8<4[8:1],{4}4p4[16:3],{8}8h[16:3],{4},{24}4,,4,
{8}8-5[8:1],5-7[12:1],8/4qq2[8:1],4pp6[8:1],4,4,{16},{48},{24}1,1,,5,
{4}5-7[8:1],{8}5-8[8:1],4,5-1[8:1],3,5-2[8:1],2,
{4}5/1>4[8:1],{8}1<6[8:1],6,1-5[8:1],5,1w5[8:7],7,
{1}1bx,
{12}4,{24}5,3,,6,{12}2,{24}7,1,,8,1x,2,3,8x,7,6,2x,3,4,7x,6,5,
{3}4h[4:1],{24}2,4,,4,{12}5,{24}5,7,,7,{12}5,{24}5,6,,3,
{12}2>5[8:1],{24}7,1,,8,{12}2,{24}7,7,,2,{12}7<4[8:1],{24}2,8,,1,{8}7,2,
,{16}3,3h[8:1],,2,{8}2h[8:1],1,1,8-4[8:1],8,
{4}8-5[8:1]*-3[8:1],8w4[8:1],8,{8}6/2,7/3,
,1q5[8:1],2/7,1,,8p4[8:1],7/2,{24}8,,1,
{12}1-3[8:1],{24}5,5-1[8:1],{16},{48},{8}1,5,4z8[8:1],{24}8,,8,4,{16},,{24},7<5[8:1],
{12}7,{24}7>1[8:1],7,,7-3-7[4:1],{4},,{8}2-6[8:1],3,
2/8-4[8:1],7,8/1-5[8:1],2,1/7-3[8:1],6,7/8-4[8:1],1,
8-6>5[8:1],7,8-2>3[8:1],1,8p4[8:1]*q4[8:1],7,{4}8x,
{8}1-5v8[4:1],6h[2:1],{4},,{8}6qq5[8:1],1h[4:1],
{4},1-4[8:1]*-6[8:1],1,5-2[8:1]*-8[8:1],
5,1pp4[4:3],{2}8<4[8:1],
4xqq8[8:5],5x-8[8:1],
{8}B7,{24}B3,,E6,{12}E2,{24}B8,B2,B6,B4,{4}C,Cfh[1:1],
,,,{12}7<5[8:1],{24}7,3>1[8:1],,3,
{8}7b-1[8:1],3-5[8:1],7-3-8b[16:3],3,{4}7,{8}1-5[8:1],6-4[8:1],
1-3[8:1],6-8[8:1],1s5b[16:3],6,1,{4},{8}1<5[8:1],
3,2,1,8>4[8:1],6,7,8,1-5[8:1],
1>4[8:1],1<6[8:1],1s5-1[4:1],1,1,{4},{24}2,,7,
{8}7-4-2[4:1],7,2-5-7[4:1],2,1,1,{4}1<8-6[8:1],
1/5>4-2[8:1],{8}5/1v6[8:1],8,1/5v2[8:1],4,5/1-6[8:1],8,
{24}1,{16},,{24},5h[8:1],{4}6h[8:1],{16},,,{48},{24}4h[8:1],{4}3h[8:1],
8-6[8:1],8/1-5[8:1],1/2-4[8:1],2/6<8[8:1],
{8}6b>4[8:1],2-5[8:1],6pp7b[16:3],2,{4}6,1-7[8:1],
{8}1-3[8:1],5<7[8:1],1v4-2b[16:3],5,{4}1,8-6[8:1],
{8}8V64[16:3],3,8/1-3[8:1],2,1V35[16:3],6,1,7,
{4}8v7[8:1]*v1[8:1],8v6[8:1]*v2[8:1],8v5[8:1]*v3[8:1],8-4[8:1],
8x-6[8:1],{8}8-5-3[16:3],2,{4}8,1-5[8:1],
1x-3[8:1],{8}1-4-8[16:3],7,1x-4-7[16:3],6,{4}1x-4-6[16:3],
{24}1,{16},,{24},7,{12}7h[4:1],{24}5,5h[8:1],{4},{24},2,{12}2h[4:1],{24}4,4h[8:1],{4},{16},{48},{4}B5/B2,
B6/B3,B7/B4,
1/E6,8/E4,7/E3,6/E2,
7h[8:1]/8h[8:1],6h[8:1]/1h[8:1],{16}5h[8:1]/2h[8:1],{8},{16}4h[8:1]/3h[8:1],{8},3/4,
{4}6h[8:1]/4h[8:1],7h[8:1]/3h[8:1],8h[8:1]/2h[8:1],1h[8:1]/7h[8:1],
{8}2q4[16:3],2,6,6,7p5[16:3],7,3,3,
2-6[8:1],4/5,{4}2/7,{8}7-3[8:1],1/8,{4}7/2,
3V52[4:1],2-6-1-7[8:3],{2}4h[8:3],
{4}8V27[4:1],7-3-6-4[8:3],6h[8:1],7h[8:1],
8p5>5[8:5],C,{8},E8,C,E4,
6h[4:1]/4h[32:7],{4},,{8}6h[8:1]/4h[8:1],{4},{8}3h[4:1]/5h[32:7],
{4},,{8}3h[8:1]/5h[8:1],{4},{8}5h[4:1]/6h[32:7],
{4},,{8}6h[8:1]/5h[8:1],{16},,,{32},3h[4:1],
4h[4:1],{4},{16},,,{32}3h[32:5],{8}4h,C,
