&title=GIGANTO MACHINA
&artist=Supa7onyz vs. Sound piercer
&first=0.149
&des=Rio
&lv_5=14+
&des_5=Rio
&inote_5=
(155.4){4},,,,,,,,{1}2q4[8:5]/7p5[8:5],
C,
3qq4[8:5]/7qq8[8:5],
{2}E5/E1,B7,
{1}8<5[4:3]/4p2[4:3],
{4},,,,2h[4:7],
E7,E6,E5,
E4,E3,E2,E1,
{8}7h[8:1],{16}5,6,4,5,{8}3h[8:1],{16}5,4,{8}6h[8:1],{16}3,4,{8}2h[8:1],
{16}8,1,{8}7h[8:1],{16}5,6,{8}3h[8:1],8w4[8:1],7/1,{4}8,
2h[8:1],{16}5,4,{8}6h[8:1],{16}4,5,{8}3h[8:1],{16}7,5,{8}6h[8:1],
{16}2,4,{8}3h[8:1],{16}7,5,{8}6h[8:1],1,5/2,{16}4,3,4,3,
{4}2h[8:1]/5h[16:3],{16}3,6,4,5,3,6,{8}4h,{16}6,5,6,5,
{4}7h[8:1]/4h[16:3],{16}7,2,8,1,7,2,{8}8h,{16}3,6,3,6,
{4}5/2>5[8:1],{24}6,7,8,1,,,{4}5x/1x<6[8:1],{24}5,4,3,2,,,{1}1bw5[2:1],
4bp1>4[2:3]/6bq1<6[2:3],
{12},,,,,,,,,,,,3,
4,2,6,5,7,{32}1,2,3,4,5,6,7,8,1,2,3,4,5,6,7,8,
{2}1w5[8:1],{16}7/3,,,2/8,,,{8}1,
{2}1q3[3:1],{4}E7/A6,{12}6pp1[8:3],2,2>5[24:5],
{2}2,{12}8,7,{24}3,2,{12}1z5[4:1],7,6,
{6}1/5>3>1[4:1],{12}8,8<5[8:1],,,{4}8b,{12}4h[8:1],2,2,
5h[8:1],3,3,6h[8:1],4,4,3h[8:1],5,5,5h[8:1],4,4,
{6}6-1[8:1]/3-8[8:1],6/3,{12},,7,7<4[6:1],2,2pp5[8:3],{6}7,
{24}2b,,,,,,,,,,,,,4x,5x,6x,7,8,{12}1-5[8:1],{24}5,4,3,2,
{6}8bx/1bx,{12}8,8w4[8:1],,,{6}8b,{12},,3,2,
1bh[4:1],4,4,{24}5,6,7,8h[8:1],,,{12}1,1,8,8-2>3[6:1]*-6>5[6:1],1,1x,
{3}8b,{12}4h[4:1],{24}6,7,{6}8h[4:1],{24}3,2,{12}1>1[12:5],7,6,
5h[2:1],,,,,,,6,{24}6,2,3,4h[24:1],,,6,7,
{16}8,1,1,2,2-7[8:1],3,3,4,{4}4b,{24}8,1,2,3,4/5,6,
{12}7h[8:1],8,8,1h[8:1],8,8,6h[8:1],8,8,1h[24:1],{24}2,3,{12}4h[24:1],
{6}5>2[8:1],{12}6,6/5<8[8:1],,,{6}5/1-6[8:1],{12}2,1-4[8:1],,,{6}1/5>2[8:1],
{12}6,5-1[8:1],7,7,{6}5,{12}6,6,{24}1,2,3,4,
{12}5bxh[6:1],6,6,4h[24:5],5,5h[12:1],{24}3b,2,1,8,7,6,5,4/1,8,7,6,5,
{1}4b<4[2:1]*>4[2:1],
{6}2v3[8:1]/7v6[8:1],2/7,,{2}1b-7[8:1]*-5[8:1],
{8}4-8[8:1],2>5[8:1],4,2,{6}6xh[4:1],,7h[18:1]/8h[18:1],
7/8<5[8:1],{12}1,8/1w5[8:1],,,{4}1b,{12}5xh[6:1],3,3,
4h[6:1],6,6,7h[6:1],5,5,{6}4b/6bh[6:1],{12},,2h[24:1],{24}3,4,
{4}5/8-3[8:1],1>4[8:1]/8<5[8:1],8b/1bs5[8:1],6/1,
{14}6,6,7,7,8,8,1,1h[10:1],{140},,,,,,,,,,,,,,,,,,{20}7,6,{10}5h[10:1],{20}8,1,
{6}2b-5[8:1],{12}5,2/5w1[8:1],,,{4}5bx,{12}7/3,8/4,5/1,
5bh[4:1],,,,,3,{6}E6,E7,E8,
1-5qq4[12:5],5,{12}8,8,{6}8h[30:13],{30}E6,,E5,,{5}E4,
{12}7,6,5,{48}3-8[8:1],,,4h[8:1],,,,,,,,,{4}3,{16}5V37[4:1],{112}5,,,,,1h[7:2],,,,,,,,,,,,,,,,{4}5,
{12}2x-4<5[8:1],,2x,{4}2bx,{12}8h[6:1],1,1,
2h[6:1],7,7,6h[6:1],1,1-5[8:1],{6}5h[6:1],1b,{24}6x,7x,{12}8qq5[12:7],
{6}4xh[6:1],8,{12},1-4[12:1],{6}1,1b,{96}3xh[96:13],,,,,,,6,,,{16}7,
{18}8,1,2,3,4,5,6,7,{9}8h[45:7],{16},,{64},{2880},,,,,,,,,,,{20}3,4,{10}2h[10:1],{20}7,8,
{8}6bh[8:1],4h[8:1],2h[8:1],8h[8:1],{24},,{12}7,6,{96}4/5,,,3,,,{32}2,1,8,7,6,5,
{1}4bw8[8:5],
Cf,
2qq4[4:3],
7h[1:1],
1-5[4:3],
3h[1:1],
6<1[4:3],
{4}E3,E4,E5,E6,
E7,E8,E1,E2,
{8}7h[8:1],{16}5,6,4,5,{8}3h[8:1],{16}5,4,{8}6h[8:1],{16}3,4,{8}2h[8:1],
{16}8,1,{8}7h[8:1],{16}5,6,{8}3h[8:1],8w4[8:1],7/1,{4}8,
{8}2h[8:1],{16}4,3,5,4,{8}6h[8:1],{16}4,5,{8}3h[8:1],{16}6,5,{8}7h[8:1],
{16}1,8,{8}2h[8:1],{16}4,3,{8}6h[8:1],1,5/2,{16}4,3,4,3,
{4}2h[8:1]/5h[16:3],{16}3,6,4,5,3,6,{8}4h,{16}6,5,6,5,
{4}7h[8:1]/4h[16:3],{16}3,6,4,5,3,6,4h,6,3,5,{8}3,
{32}2b,3,4,5,6,7,8,1,2,3,4,5,6,7,8,1,5b,4,3,2,1,8,7,6,5,4,3,2,1,8,7,6,
{2}5bh[2:1],{32}4,5,4,5,4,5,4,5,{16}3,6,4,5,
3,4,{8}2h[4:1],{16}1-4[8:1],8,7,6,{8}1/5-3>2b[8:1],{16}7,7,{8}5,{16}6,6,
1,8,3,4,2,7,8,6,{8}4-7[8:1],{16}2,2,{8}4,{16}3,3,
8,1,8,7,6,1,2,3,{8}4>3-1b[8:1],{16}5,3,{8}4,{16}7,8,
{8}6,{16}2>5[8:1],1,,1,{8}2,{24}7,8,1,2,3,4,{8}1/5,{16}6,5,
6,5,{8}7h[4:1],{16}8-5[8:1],1,2,3,{8}8/4-6<7b[8:1],{16}2,2,{8}4,{16}3,3,
8,1,{8}7h[8:1],{16}1<8-6b[8:1],2,3,4,{8}1>2-4[8:1],{16}2,7x,{8}1,{16}6,5,
{8}7b,8/1,{16}6,5,6,5,{8}4/7b,{16}3,4,3,4,{8}2/5,
{24}1b,8,1,8,1,8,2,7,2,7,2,7,{16}4b-8[8:1],6,3,5,{4}4,
{16}7-1b[8:1],5,{8}6,{16}7-4[8:1],3,,5,{8}7,{16}2>5b[8:1],1,{8}3,8-4[8:1],
{16}6,4x,{8}8,{16}1-6b[8:1],5,,2,{8}1-4[8:1],{16}3,8,{8}1,{16}6,5,
7,3,4,2,6,5,8,3,4,1,6,4,8,3,5,1,
{8}8,{16}4/3,5/2,,6/5,{8}7/4,{24}1-5[8:1],8,1,8,1,8,{8}1,7,
{16}2-8b[8:1],4,{8}3,{16}2-5[8:1],6,,4,{8}2,{16}7<4b[8:1],8,{8}6,1-5[8:1],
{16}3,5x,{8}1,{16}8-3b[8:1],4,,7,{8}8-5[8:1],{16}6,1,{8}8,{16}1,2,
{24}3b,4,3,5,4,5,{16}2,3,4,5x,{24}6b,5,6,4,5,4,{16}7,6,5,4x,
{24}2b,3,4,8,7,6,1,2,3,7,6,5,{4}4b-7[8:1]/8b-3[8:1],8/4,
{8}7x<4[8:1],8,3-6b[8:1],2,1-5[8:1],8,{4}1/7>2[8:1]*<4[8:1],
7-3[8:1],{8}7,{16}2,4,1,8,5,7,4,6,3,5,
{8}2>5[8:1],1,6-3b[8:1],7,8-4[8:1],1,{4}2<7[8:1]*>5[8:1],
2-6[8:1],{8}2,{16}7,5,8,1,4,2,5,3,6,4,
7,7h[8:1],,1,{8}1h[8:1],{16}3,3h[8:1],,5,{8}5h[16:1],{16}6,6,5,7,
2,2h[8:1],,8,{8}8h[8:1],{16}6,6h[8:1],,4,{8}4h[16:1],{16}3,3,4,2,
6,5,7,7,3,4,2,2,7,8,6,6,2,1,3,3,
{32}1,8,7,6,{16}4,4,{32}1,8,7,6,{16}4,4,{32}1b,2,3,4,5,6,7,8/3,4,5,6,7,8,1,2,3,
{8}7v4[8:1],6,7/1<6b[8:1],2,1/3-8[8:1],4,{4}3/5-2[8:1]*-1[8:1],
5,{8}8h[4:1],{16}3,4,5,6,7,8,1/5,2/6,3/7,4/8,
{4}1-6b[8:1]/5-2[8:1],1/5<8[8:1],{8}5,{16}2,1x,3,8,4,7,
{4}5x/6x-2[8:1],{8}7/6,{16}8,1,4,3,7,8,6,5,1,2,
{8}4<7b[8:1],3,4/2-5[8:1],1,2/8-4b[8:1],7,{4}8,
{16}6,5,{8}7h[4:1],{16}8-5[8:1],1,2,3,{8}8/4-6<7b[8:1],{16}2,2,{8}4,{16}3,3,
{24}8bx,7x,6x,1,8,7,{16}4,3,5,5,{24}1b,2,3,8,1,2,{16}5,6,4,4,
{24}7b,8,1,2,3,4,8/5,1,2,3,4,5/7,6,5,4,3,2,1,{16}4-1[8:1]/8-5[8:1],4/8,4/8,4/8,
{1}4bx-2-7>3b[1:1]/8bx-6-3<7[1:1],
{12},,,,,,3,7,2,6,1,5,
{8}8/4,5/1,6/2,7/3,{16}8,4,7,3,6,2,5,1,
{32}8/4,1/5,2/6,3/7,8,1,2,3,8/4,1/5,2/6,3/7,8,1,2,3,4/8,5/1,6/2,7/3,8,1,2,3,{4}4/8-4[8:1]*-4b[8:1],
{8}8b>1-3b[8:1],{16}1,6,{8}8<7-5[8:1],{16}7,2x,{24}8,,,,,2,4,3,,7,5,6,
{18}4h,4h,4h,4h,4h,4h,4h,4h,4h,4h[9:1],{16},,{64},{2880},,,,,,,,,,,{20}2,1,{10}3h[10:1],{20}6,5,
{8}7bh[8:1],8h[8:1],1h[8:1],2h[8:1],{24}5b,4,5,4,{48},{16}6h[16:1],{24}3,4,3,4,{48},{16}2h[16:1],
{32}5b,6,7,8,1,2,3,4/1,5/2,6/3,4/7,5/8,6,7,8,1,{28}2bh[28:3]/6bh[4:1],,,B2,C,B6,{224},,,,,,,,{32}7b-3b[8:1],8b,1b,2b,3b,4b,{16}5b,
{1}A7,
E
