&title=My last stand
&artist=Robbie Wyckoff
&first=-0.205
&des=Neya
&lv_5=13+
&inote_5=(186)
{1},
{48}3bx<7[8:12]/6bx>2[8:12],4bx/5bx,,,,,,,,,,,{4},,,,,,,
{48}2bx>8[8:18]/7bx<1[8:18],3bx/6bx,4bx/5bx,,,,,,,,,,{4},,,,,,,
{16},,,,,,,,,,,,1-5[8:1],8,2,7,
{1}1b,
{16},,,,,,,,4/6,,7-4[8:1]/3-8[8:1],,,,7b/3b,,
{1},,
{8}4/3h[8:2],,4,,4/5h[8:2],,4,,
{8}4/2h[8:1],,4/1h[8:1],,4/6h[8:1],,4/7h[8:1],,
{8}5/6,5/6,5/4,5/4,4/3,4/3,2/3,3/2,
{8}1b-4b[8:1]/4b,,1-6b[8:1],,1-5b[8:1],,1,,
{16}3b/7b,,,6,4x,,7-4[8:1],,,,7,,8x,,,,
{16}2/6,,,3,5x,,2-5[8:1],,,,2,,1x,,,,
{16}3/7,,3,,4x/5x,,5,,2/4,,2,,6x/4x,,6,,
{16}7/1,,1,6,2x,,7-3[8:1],,,,7,,8x,,,,
{16}2h[4:1]/4,,,,1x,,3,4,3,,5,,8x/2x,,,,
{16}7h[4:1]/5,,,,8x,,6,5,6,,4,,1x/7x,,,,
{16}2/4,,2/4,,6x/C,,,,8/5,,8/5,,3x/C,,,,
{16}2b-6[8:1],,,,2/1,,7b,,,,7/8,,2b/5b,,,,
{16}4/3,,3,,6x,,3,4,3,,3,,6x,,,,
{16}4/2,,2,,5x,,2,4,2,,2,,1x/7x,,,,
{16}4/3,,3,,6x,,3,4,3,,3,,6x,,,,
{16}2/4-7[8:1],,4/2,,1x,,,,8/3-8[8:1],,8/3,,7x,,,,
{16}5,,5,,2x,,4,,3,,3,,5x,,4,,
{16}6^3[8:1],,6,,3x,,,,1^6[8:1],,1,,6x,,,,
{16}7-4[8:1]/5,,,,4x/7x,,2-6[8:1],,,,26,,8xw4[8:1],,,,
{16}8,,,,6x/2x,,3-6b[8:1]/7-2b[8:1],,,,3b/7b,,,,,,
{16}4/7,,7,,1x,,6,5,6,,3,,1x,,,,
{16}4/6,,6,,8x,,7,5,7,,3,,8x/2x,,,,
{16}4/7,,7,,1x,,6,5,6,,3,,1x,,,,
{16}6/4^1[8:1],,4/6,,5x,,,,6^1[8:1]/2,,6/2,,3x,,,,
{16}5,,5,,7x,,2,,4,,4,,3x,,6,,
{16}5-2[8:1],,5,,8x,,,,7-4[8:1],,7,,8x,,,,
{16}1-5[8:1]/5,,,,1x/7x,,8-3[8:1],,,,38,,2x,,,,
{16}4/5,,6,5,6,4,6,5,7,4,5,2,6,3,8,1-5[16:17],
{1}E1f/E2/E8,
{16},,,,,,,,,,{24}A6,E6,E5,A3,E4,E5,,,,
{1},
{16},,,,,,,,,,34,,,,34,,
{1}1-5b[8:8],
{16},,7,,7,,,,,,,,,,,,
{16},,{64}6,5,,,,,,,{16},,{64}6,5,,,,,,,{16},,,,,,,,
{16},,3,5,4x,,,,3,5,4,5,2x,,,,
{8}6xpp4[8:6],,2,,2,,2,,
{8}2xqq6[8:6],,5,,5,,5,,
{8}5xpp4[8:6],,3,,3,,3,,
{8}3xqq6[8:6],,7,,7,,7,,
{8}7x-4[8:2],,4-8[8:2],,8-3[8:2],,3,,
{8}2xV46[8:2],,6V82[8:2],,2xV46[8:2],,6,,
{8}8b-6[8:1]*-2[8:1],,8,,8bv5[8:1]*v3[8:1],,8,,
{16}2,,2,,7,,7,,1,8,2,7,3,6,4>5[8:11],5,
{1}4h[8:12],,
{8}3b-8b[8:1]/6b,7-4[8:1],3x,7,,2,7x-4[8:1]/3x-8[8:1],,
{8}7/3,,1x-5[8:1]/5x,,6,6,7x/3x,,
{8}2b^5b[8:1],5^8[8:1],2x,8,,5,2x^5[8:1]/5x^8[8:1],,
{8}2/5,,7x-3[8:1]/3x,,1,1,2x/5x,,
{8}6x-1[8:1],4,6,5x-2[8:1],7,5,6x-1[8:1],3,
{8}6,5x-1[8:1],8x<2b[8:2],5,8,A5f/D6/D5,,,
{16}7x/1x,,2,4,2x,,6,,5x/7x,,3,,2x/8x,,7,5,
{16}7x,,3,,4x/2xV41b[8:2],,6,,7-4[8:1],,A4f/D4/D5,,,,,,
{8}6b-1b[8:1]/3b,2-5[8:1],6x,2,,7,2x-5[8:1]/6x-1[8:1],,
{8}2/6,,8x-4[8:1]/4x,,3,3,2x/6x,,
{8}7b^4b[8:1],4^1[8:1],7x,1,,4,7x^4[8:1]/4x^1[8:1],,
{8}7/4,,2x-6[8:1]/6x,,8,8,7x/4x,,
{8}3x-8[8:1],6,4,,3x-5[8:1]/8x-3[8:1],,3/8,,
{8}4x-8[8:1],7,5,,8x-4[8:1]/4x-7[8:1],,4/8,,
{8}5x^2[8:1],,{24}8,7,6,{8}5,2x^5[8:1],,{24}5,6,7,{8}8,
{8}3bhx[8:2]/7bx,,4qq3^6b[8:3],6bhx[8:2]/2bx,,B3f/E4/E3/A3,,,
{4}8bhx[8:2]/5bhx[8:2],,3bx/E7/B6/E6/A6f,,
{4}2bhx[8:2]/4bhx[8:2],,7bx/E1/B1/E2/A1f,,
{4}8bhx[8:2]/5bhx[8:2],,3bx/E7/B6/E6/A6f,,
{16}2bhx[8:2]/4bhx[8:2],,,,,,,,1,7,1,7,1,7,1,7,
{16}8bh[8:2],,,,7,,5bh[8:2]/2b,,,,4,,2bh[8:2]/8b,,,,
{16}1,,7bh[8:2]/4b,,,,6,,8bx-5[8:1]/4bx-1[8:1],,8bx/4bx,,Cf,,,,
{16}2bh[8:2]/6b,,,,5,,7bh[8:2]/8b,,,,5,,2b>1[8:6]/8b<1[8:6],,,,
{4}A8/E1f/E2/A2/D1/D2/A1,,,,
{16}3,5,3,5,2q6[8:1],,2,,8z4[8:2],,8,,4x,,,,
{16}3,,3,,4x,,5^8[8:1]/2^5[8:1],,,,2/5,,,,,,
{16}6/5,,7,,3x,,6/5,,7-3[8:1],,3-8[8:1],,1x,,,,
{16}2,,2,,6x,,3^8[8:1]/5^8[8:1],,,,3/5,,,,,,
{16}2/8,,7,,4x,,2/8,,7v6-4[8:2],,4,,1x,,,,
{16}2-5[8:1],,3/4,,2x/5x,,,,7-3[8:1],,4/6,,7x/3x,,,,
{16}1x^4[8:1],,,,7,,6x^1[8:1],,,,4,,3x^6[8:1],,,,
{16}1,,8xV25[8:2],,7xV16b[8:2],,8,,7,,,,,,,,
{16}6,4,6,4,7p3[8:1],,7,,1s5[8:2],,1,,5x,,,,
{16}6,,6,,5x,,4^1[8:1]/7^4[8:1],,,,7/4,,,,,,
{16}3/4,,2,,6x,,3/4,,2-6[8:1],,6-1[8:1],,8x,,,,
{16}7,,7,,3x,,6^1[8:1]/4^1[8:1],,,,6/4,,,,,,
{16}7/1,,2,,5x,,71,,2v3-5[8:2],,5,,8x,,,,
{8}7hx[8:2],6,4,7hx[8:2],6,4,8x,8,
{8}2hx[8:2],3,5,2hx[8:2],3,5,1hx[8:2],4,
{8}7,1hx[8:2],4,7,1x^4[8:1]*^6[8:1],,1,,
{8}5b-8b[8:1]/3b,2-5[8:1],5x,2,,63,2x-5[8:1]/5x-8[8:1],,
{8}5/2,,7x-4[8:1]/4x,,2,2,8x/7x,,
{8}6b^1b[8:1],1^4[8:1],6x,4,,1/6,1x^4[8:1]/6x^1[8:1],,
{8}6/1,,3x-8[8:1]/8x,,6,6,2x/4x,,
{8}1x-4[8:1],7,1,6x-1[8:1],4,6,3x-6[8:1],1,
{8}3,8x^5[8:1],4xqq5b[8:2],8,4,A3f/E4/D4,,,
{16}2x/8x,,7,5,7x,,3,,4x/2x,,6,,7x/1x,,2,4,
{16}2x,,6,,5x/7xV58b[8:2],,3,,2-5[8:1],,A6f/E6/D6,,,,,,
{8}4b-1b[8:1]/6b,7-4[8:1],4x,7,,36,7x-4[8:1]/4x-1[8:1],,
{8}4/7,,2x-5[8:1]/5x,,7,7,1x/2x,,
{8}3b^8b[8:1],8^5[8:1],3x,5,,8/3,8x^5[8:1]/3x^8[8:1],,
{8}3/8,,6x-1[8:1]/1x,,3,3,7x/5x,,
{16}7x,1,7,1,6,2,6,2,5-1[8:1],6,7,8,1x,,,,
{16}3/4,,2x/5x,,,,6/4,,7x-5[8:1]/3x-5[8:1],,,,7x/3x,,,,
{16}2x,4,3,4,2,,8x,5,6,5,8,,1x/7x,,,,
{16}6/5,,7x/4x,,,,3/5,,2x-4[8:1]/6x-4[8:1],,,,2x/6x,,,,
{16}7x,5,6,4,5,3,4,2,5-1[8:1],6,7,8,1x,,,,
{16}3/4,,2x/5x,,,,6/4,,7x-4[8:1]/3x-8[8:1],,,,7x/3x,,,,
{16}1b,4,3,4,2,,7b,5,6,5,8,,2b,8,3,7,
{16}4,6,1b,7,2,6,3,5,8,7,8,7,{32}1w5b[8:1],2,3,4,5,6,7,8,Cf,,,,
