&title=frac{textup{sig}=frac{821}{149}}{bpmapprox533}
&artist=黒皇帝
&first=1.44
&des=潘り潘りF.²༒Re:Ⅶ_δИ₂༄
&lv_5=14+
&inote_5=(266.5)
{8}
4,4,8,5,6,{16}3,4,3,,5,,2,,8,,{24}1b/7b,2qq7b[16:55]/6,35,{8}4>5[16:75],,,,,,,,,,,,,,,,,,,,,,,,,,,,,,,,,,,,,{16},,,,,,,,,,,,,
{8}3h[16:8],,,,4,,3,,5,4h[16:10],,,,,3,,4,,5h[16:8],,,,
3h[16:8],,,,4,,3,,5,4h[16:10],,,,,3,,4,,5,,,,4b/6b,,,,4,6,,6,5,,7,,,3,5,{16}5,{24}2,,,,,,,{16}4,,3,,7,,4,,6,,6,,3h[16:12],,5h[16:10],,,,,,,,,,,,,,6,,5,,5h[16:3],,6,,5,,6,,5h[16:4],,,,7,,5,,6,4,6,4h[16:9],,,,,,,,,5,,,,3,,4,,3h[16:3],,4,,3,,4,,4,,3,,5,,3,,4,,4,,2,,2,,1h,,1h,,{4}3V57[1:1]*qq6[1:2],,,,,,,,,,,
{8}1b<7[7:1]/7b,1b/7bq3[4:1],,,,,5h[16:4],,{12}4h[24:1],6h[24:1],5h[24:1],{8}7bqq4[12:7],,,3b,,,2,2,5h[16:4],,3<5[5:1],,8b,8b,,,,,,,,,7h[16:2],5,7h[16:2],4,7h[16:2],3,7h[16:2],2,{12}7,1,{11}6,{8}8,4,3b/5b,,,6b/2b,E6,B5,E3,B3,8h,,5,5,7,5,6,4h[16:3],5h[16:2],{16}3h[24:1],4h[24:1],{8}2,2,1,1,2b/8b,,,6b/5b,{16}7,6,5,4,2,,2,,3h[16:2],,{8}1h,,,6h[16:2],2,6h[16:2],3,6h[16:2],4,6h[16:2],5,7h,,3,,3,,3,,3,,3,5,4,,4,,4,,4,,4,,4,{16}6,5,{8}6,,6,,6,,6,,6,5,7h[16:2],,7h[16:2],,7h[16:2],,7h[16:2],,7h[16:2],,1h,,
3h[16:2],4,3h[16:2],5,3h[16:2],6,3h[16:2],7,3,{16}6,5,{8}6h[16:2],4,6h[16:2],3,6h[16:2],2,6h[16:2],1,6h[16:2],8,7h,,
5h[16:2],6h[16:2],3h[16:2],5h[16:2],2h[16:2],4h[16:2],8h[16:2],6h[16:2],1h[16:2],8pp5[12:10]*qq3[12:10],,,,,,,,,,,4h[16:4],,E7/B6,,,,
1,1,6,6,2,{32}2,3,4,5,{8}8,8,7,7,6,6,3,{16}3,4,{8}3,3,5h[16:4],,B2/B1,,,,{32}78,6,5,4,,,,,1,,,,1,2,3,4,,,,,1,8,7,6,{16},,3,4,3,,5,,2,,6,4,6,,5,,{12}E7,E8,{11}E1,{8}2,2h[16:2],B4/B3,,,,3,3,{16}5,4,5,,3,4,3,4,3,,{8}6,5,5,8,{32}8,7,6,5,{8}3,4h[16:10],{37}E3,{25}E2,E1,E8,,{16}E7,E6,,E5,,D4/E4,,,,,,,,{32}7,6,5,4,,,,,1,,,,{48}1,5,2,6,3,7,4,,,,,,{8}8,8,4,6,{16}6,5,
{16}7h[24:3]/4h[24:3],,,3h[24:3]/5h[24:3],,,1h[24:3]/2h[24:3],,,6h[24:3]/8h[24:3],,,6b/8b,,,,
{8}3h[16:2]/4pp1[12:7],,3h[16:2],,3h[16:2],,3h[16:2],,3h[16:2],8<5[12:3],2h[16:2],,2h[16:2],,2h[16:2],4,3h[16:2],5,4h[16:2],7,{16}5,6,5,6h[16:3],{8}5>2[12:3],,6h[16:2],,{16}6h[24:3],,1,6,,,6,,8,,7qq8[12:6],,{8}3h[16:2],,3h[16:2],,3h[16:2],,3h[16:2],,{16}3,1,3,1,{8}3bqq8[12:9],,4h[16:2],,4h[16:2],,4h[16:2],,4h[16:2],,4h[16:2],1>4[12:3],7h[16:2],,7h[16:2],,7h[16:2],5,6h[16:2],4,5h[16:2],2,
{16}4,3,4,3h[16:3],{8}4<7[12:3],,3h[16:2],,{16}3h[16:3],,,8,3,,1,,2,,6,4>6[12:7],{8}5h[16:2],,5h[16:2],,5h[16:2],,5h[16:2],,{32},5,4,3,2,,,,
{8}8b,,1,1,4h,3,5,4h,6,5,4h,4h,7,3,4h,2,4h,5,3,1,4h,7,{16}4h,6,5,6,{8}5,7,4h,5,{16}4h[16:2],,3,4h[16:2],,2,{8}4h,4h[16:3],5,3,3,4h,2,4h,8,6,1,{16}4h,3,4h,3,
{8}5b,,7,7,5h,6,4,5h,3,3,5h,5h,2,6,5h,8,5h,
7,8,6,5h,7,{16}5h,4,3,2,
{8}8b,8,1h,6,2h[16:2],{16}4,2h,,,7h,,4h,,6h,5h,{8}6,3,4h,1,7h,5,1,3,{32}7,6,5,4h[16:3],,,,,,{8}1-5[6:1],,
(133.25){8}4b>5[12:49],,,,,,,,,,,
{8}
{16}3qq8[12:10],,,,,,,,,,,,,,,,,,,,,,1q6[12:8],,,,,,,,,,,,,,,,,,,,,,7<4[12:5],,,,,,{8},,,,,,
{64}3,4qq7[12:9],,,,,,,{8},{64}4,{8}6h[64:89],,,,,,,,,,,7h[64:33],,,,{64}8h[64:7],,,,,,,{8}1pp8[16:6],,,,{16}7,6,5,4h[16:19],8<1[12:9],,,,,,,,,,,,,,,,,,,,,,8,,,,,,,,{24}2,3qq6[48:20],4q5[48:18],5,,,{8},,,,,
{8}7bqq2[12:10]*V13[12:5],,,,,,,,,,,
(266.5)
3h[16:8],,,,4,,3,,5,4h[16:10],,,,,3,,4,,5h[16:8],,,,
2h[16:8],,,,4,,2,,5,4h[16:10],,,,,3,,4,,5h[16:8],,,,
1h[16:8],,,,4,,1,,5,4h[16:10],,,,,3,,4,,5h[16:4],,2b,,
5,4,7h,5,6,2h,4,4,3h,1h,5,6,{16}4h,3h,6h,5h,{8}2h,4,3,3,1h,2,{16}7h,,7h,1h,{8}6,5,8h,2,{16}7h[16:2],,8,7h,,,2h,,1h,,2h,3h,{8}4h,6,5h,7,3h,4,2,6,{16}3h,5h,3h,5h,{8}4b,,
6,5,7h,3,5,1h,4,4,2h,{16}5,6,{8}3,8,5h,7,1h,4,2,6,{16}2h,3h,6h,5h,{8}1b,,4,3,6h,5,{16}7h[16:2],,4,7h,,,1h,,4h,,2h,5h,3h[16:2],,7h[16:4],,,,5h[16:4],,,,1h[16:4],,,,3,1,8,7,61,2,3,{8}4-8[6:1],,{16}8,,,,,,,
(133.25){8}1b>8[12:46]/7b,,,,,,,,,
{8}
{16}1s5[12:10],,,,,,,,,,,,,,,,,,,,,,4v7[12:9],,,,,,,,,,,,,,,,,,,,,,6<1[12:3],,,,,,,,,,
(266.5)
{16}
A2,A3,A4,A5,
E1,E2,E3,E4,
B6,B7,B8,B1,
5,6,7,8,
2,3,4,5,
{8}1bw5[6:1],,,,,,
2-4[6:1],,2-8[6:1]/7-5[6:1],,2/7q3[12:3],,4,5,6<8[6:1],,5-1[6:1],,1>3[7:1],,8<5[6:1],,{16}4,3,2,1,{8}8-4[6:1],,6-1[7:1]/8,,56,,{16}2,1x,2,,8,,3,,4/7<4[6:1],,,,3>1[6:1]/7,,,,6pp3[12:5]/3,,,,4,,4,,,,,,2,,2,4,3b-5[6:1],,,,3-1[6:1]/8-6[6:1
],,,,3/8q4[12:3],,,,5,,,,6,,6,5,7-4[6:1],,,,3-7[6:1]/7,,,,3/5<8[6:1],,,,1>3[7:1],,,,6,5,4,,4,,6,,5b-2[6:1],,,,7-3[6:1],,,,1-6[6:1],,1,,4-7[6:1],,,,2,,2,8,3-5[6:1],,,,1V75[12:3],,,,4,3,2,,1,,4,,6,,8,,3b,,,,
{8}
17,17,17,17,17,{16}6,5,6,,2,,4,3,4,3,4,,{32}2,3,4,5,{8},7,{16}7,8,7,,1,,82,,3,4,3,,6,4,{32}7,6,5,4,{8}1b,,,,28,28,28,28,{16}3,4,3,4,3,,7,,5,,6,,{32}46,3,2,1,{8},7,{32}78,6,5,4,{8},1,4,{42}1,5,2,6,3,4,{8}7b,,,,{16}6,5,6,,3,4,3,,6,4,{32}7,6,5,4,{8},{16}2,1,,3,4,,2,,6,5,6,,2,,4,3,4,3,4,,1,,6b,,,,,,,,82,,{32}82,7,6,5,{8},1,{16}4,3,4,3,4,,2,,8,,8,,5,6,5,,7,,4,,74,63,52,41,8b,,,,
7,6x,3,4x,7,6x,3,4x,
8,7x,2,3x,8,7x,2,3x,
7,6x,1,2x,7,6x,1,2x,
6,5x,2,3x,8,7x,2,3x,
7,6x,3,4x,
6h[16:8],,,,,,,,
2,3x,6,5x,2,3x,6,5x,
1,2x,7,6x,1,2x,7,6x,
2,3x,8,7x,2,3x,8,7x,
3,4x,7,6x,1,2x,6,5x,
2,3x,8,7x,
3h[16:8],,,,,,,,
7,6x,3,4x,7,6x,3,4x,
8,7x,2,3x,8,7x,2,3x,
7,6x,1,2x,8,7x,2,3x,
8,7x,2,3x,7,6x,3,4x,
6,5x,2,3x,
5h[16:8],,,,,,,,
2,3x,5,4x,2,3x,6,5x,
1,2x,7,6x,2,3x,8,7x,
3,4x,7,6x,1,2x,6,5x,
2,3x,8,7x,
{32}2b,3,4,5,,,8b,7,6,5,,,1b,2,3,4,,,7b,6,5,4,,,
{8}1h,,{24}8b/2b,7pp2b[16:55]/3,64,{8}5<4[16:75],,,,,,,,,,,,,,,,,,,,,,,,,,,,,,,,,,,,,{16},,,,,,,,,,,,,
{8}3h[16:8],,,,4,,3,,5,4h[16:10],,,,,3,,4,,5h[16:8],,,,
3h[16:8],,,,4,,3,,5,4h[16:10],,,,,3,,4,,5h[16:8],,,,
3h[16:8],,,,4,,3,,{16}5,4,5,4h[16:14],5,,,,,,,,3,,,5,,,,4,,,5h[16:6],,,,,,3h[16:13],,,,,A4h[16:8],,,,,,,,,,,5h[16:3],,4h[16:8],,,,,,5,3h[16:3],,,,,3,,4,,,,{12}5h[12:1],,5h[12:1],{8},,{24}3h[16:22],,,,,,,,A4h[24:25],,,,,,,,,,,,,,,,,,,,,,,,,,,,{8}3,,4,,{12}5h[12:2],,,,5h[12:5],,,,,
3h[12:5],,,,,4,{24}3h[24:11],,,,,,,,,,,4,,,,3h[16:8],,,,,,,,,,,,4,,,,3h[16:10],,,,,,,,,,,,,,,4,,,3h[24:3],,,5,
