&title=にんころダンス
&artist=HoneyWorks feat.ハコニワリリィ
&first=0
&des=草隠アザゼル
&lv_5=13+
&inote_5=(170){4},,,,
{8}4h[8:2]/5h[8:2],,,,4h[8:2]/5h[8:2],,,,
4/5,,2/7,,3h[8:2]/6h[8:2],,,,
4h[8:2]/5h[8:2],,,,2h[8:2]/7h[8:2],,,,
4/5,3/6,2/7,,4-2[8:1]/5-7[8:1],,4b/5b,,
{8}1/8,,2/8q4[8:2],,3h[8:2]/8,,,,
8/1,,7/1p5[8:2],,6h[8:2]/1,,,,
4h[8:2]/5h[8:2],,,,1h[8:2]/8h[8:2],,,,
1/8,,2/7,,3h[8:2]/6h[8:2],,,,
1/8,,2/8>4[8:2],,3h[8:2]/8,,,,
8/1,,7/1<5[8:2],,6h[8:2]/1,,,,
4h[8:2]/5h[8:2],,,,1h[8:2]/8h[8:2],,,,
1/8,,2/7,,3-7[8:1]/6-2[8:1],,,,
{16}1,,,6,2,,,6h[16:5],
3-7[8:1],,,,,,,,
1,,,6,2,,,6h[16:5],
3-7[8:1],,,,,,,,
1,,,6,2,,,6,
3,,,6,4,,,6,
5-2[8:1],,,,7-4[8:1],,,,
1^4[8:1],,,,,,,,
7h[8:1]/5h[8:1],,,,6h[8:1]/4h[8:1],,,,3,5,4,6,5,,,,
2h[8:1]/4h[8:1],,,,3h[8:1]/5h[8:1],,,,6,4,5,3,4,,,,
{8}1-5[8:1]/5-7[8:1],,1/5,,8-4[8:1]/4-2[8:1],,8/4-6[8:1],,
1^3[8:1],,5/1b^7[8:1],,4q8[8:1]/1b^4[8:1],,4/1bqq6[8:4],,
{8}3h[8:4],,,,,,1/5,2,
3/7,,1/5,,3/7,,1-3[8:1]/5,,
7,,8-4[8:1]/5,,7,,1-3[8:1]/5,,
7,,8p3[8:1]*v5[8:1]/5,,,,4pp7[8:4]/7,,
{8}2h[8:4],,,,,,4/8,3,
2/6,,4/8,,2/6,,4-2[8:1]/8,,
{16}6,,,,5-2[8:1]/8,,,,
6,,,3/8-5[8:1],,,1h[8:3],,
{8},,4^7[8:1],,{32}1h[384:1],2h[384:1],3h[384:1],,,,,,8/5>1[8:6],,,,,,,,
{8}8b,,8,,8,,8>4[8:7],,
7,,7,,7,6,5>8[8:7],,
7,,7,,7,,7>4[8:7],,
6,,6,,6^8[8:1],,6h[384:1],,
3/1,,3/8,,3/7,,3/6,,
3/7,,3/6,,3-7[8:1]/5,4,3h[8:5],,
{16}8,,8,,7,6,5h[8:4],,
1,,1,,2,3,4,,
4/5,,3/6,,2/7,,,,
4-2[8:1]/5-7[8:1],,,,4b/5b,,,,
{16}7/1-4[8:1],,,8,1,,7,,
6-4[8:1]/3p7[8:1],,,,6/3,,,,
{8}1h[8:1]/5h[8:1],,2h[8:1]/6h[8:1],,3^5[8:1]/7-1[8:1],,3b/7b,,
{16}4/8-5[8:1],,,3,8,,2,,
6v1[8:1]/1q5[8:1],,,,6/1,,,,
{8}8h[8:1]/4h[8:1],,7h[8:1]/3h[8:1],,6^4[8:1]/2-8[8:1],,6b/2b,,
{16}7/1-4[8:1],,,6,1,,8,,
6q2[8:1]/5v2[8:1],,,,6/5,,,,
{8}1h[8:1]/8h[8:1],,2h[8:1]/7h[8:1],,3-5[8:1]/6q2[8:1],,3b/6b,,
{8}1h[8:1],2h[8:1],4h[8:1],3h[8:1],7h[8:1],8h[8:1],6h[8:1],5h[8:1],
{8}8h[8:4],2,2,2,2h[8:2],,3-6[8:1],,
{8}2b-7[12:1],,3-6[12:1],,2-7[12:1],,3-6[12:1],,
2-7[12:1],,3-6[12:1],,2-7[12:1],,3h[8:2],,
2,3,2,3,1,4,1,4,
8,5,8,5,7,6,7,6,
{32}8h[384:1],1,2,,,,,,6,,,,,,,,
1h[384:1],2,3,,,,,,6,,,,,,,,
2h[384:1],3,4,,,,,,6,,,,,,,,
3h[384:1],4,5,6,7,8,1,2,{8}3h[8:1],6,
{16}3,4,3,4,3,4,3,4,
2,5,2,5,2,5,2,5,
1h[8:1],,6,2,7h[8:1],,3,5,1bV73[8:2],,,,,,,,
{8}6h[8:4],,4,,2,,8/4,7,
6/2,,8/4,,6/2,,8-6[8:1]/4,,
2,,1-5[8:1]/4,,2,,8-6[8:1]/4,,
2,,1q6[8:1]*v4[8:1]/4,,,,5qq2[8:4]/2,,
{8}7h[8:4],,,,,,5/1,6,
7/3,,5/1,,7/3,,5-7[8:1]/1,,
{16}3,,,,4-7[8:1]/1,,,,
3,,,6/1-4[8:1],,,8h[8:3],,
{8},,5^2[8:1],,{32}8h[384:1],7h[384:1],6h[384:1],,,,,,1/4<8[8:6],,,,,,,,
{8}1b,,1,,1,,1<5[8:7],,
2,,2,,2,3,4<1[8:7],,
2,,2,,2,,2<5[8:7],,
3,,3,,3^1[8:1],,3h[384:1],,
6/8,,6/1,,6/2,,6/3,,
6/2,,6/3,,6-2[8:1]/4,5,6h[8:5],,
{16}1,,1,,2,3,4h[8:4],,
8,,8,,7,6,5,,
5/4,,6/3,,7/2,,,,
5-7[8:1]/4-2[8:1],,,,5b/4b,,,,
{8}1w5[8:4]/8,,,,,,,,
4w8[8:4]/5,,,,,,,,
{16}7/1-4[8:1],,,8,1,,7,,
6-8[8:1]/3q8[8:1],,,,6/3,,,,
{8}1-5[8:1]/7,,6-3[8:1],,2^5[8:1],,2b/7b,,
{16}1/8-5[8:1],,,2,8b,,3,,
4-2[8:1]/6p2[8:1],,,,4/6,,,,
{8}1h[8:1]/8h[8:1],,2h[8:1]/7h[8:1],,3-8[8:1]/6^4[8:1],,3b/6b,,
5-8[8:1],1-3[8:1],5,1,7-4[8:1],2-5[8:1],7,2,
6^8[8:1],4,4,4,1h[8:4]/4,,5,,
6qq6[8:8]*pp6[8:8],,,,,,,,
,,,,4-2[8:1]/5-7[8:1],,4b/5b,,
{16}7/1-4[8:1],,,8,1,,7,,
6-4[8:1]/3p7[8:1],,5/2,,6/3,,,,
{8}1h[8:1]/5h[8:1],,2h[8:1]/6h[8:1],,3^5[8:1]/7-1[8:1],,3b/7b,,
{16}4/8-5[8:1],,,3,8,,2,,
6v1[8:1]/1q5[8:1],,7/8,,6/1,,,,
{8}8h[8:1]/4h[8:1],,7h[8:1]/3h[8:1],,6^4[8:1]/2-8[8:1],,6b/2b,,
{16}7/1-4[8:1],,,6,1,,8,,
6q2[8:1]/5v2[8:1],,7/4,,6/5,,,,
{8}1h[8:1]/8h[8:1],,2h[8:1]/7h[8:1],,3-5[8:1]/6q2[8:1],,3b/6b,,
{8}1h[8:1],2h[8:1],4h[8:1],3h[8:1],7h[8:1],8h[8:1],6h[8:1],5h[8:1],
{8}8h[8:4],2,2,2,2h[8:2],,5h[8:2],,
{16}2h[16:3],,,4,3,,5,,
4-8[8:1]/6,,,,4b/1,,,,
2h[16:3]/7,,,4,3,,5,,
4-8[8:1]/6,,,,4b/2,,,,
2h[16:3]/7,,,4,3,,5,,
4-8[8:1]/6,,,,4b-1[8:1]/3,,,,
4b-7[8:1],,,,4b-1[8:1],,,,
4bw8[12:1],,,,4b,,,,
{16}7b/1b-4[8:1],,,6,1,,8,,
6q2[8:1]/5v2[8:1],,7/4,,6/5,,,,
{8}1h[8:1]/8h[8:1],,2h[8:1]/7h[8:1],,3-5[8:1]/6q2[8:1],,3b/6b,,
4/8,4/8,4/8,4/8,3/7,3/7,2/6,2/6,
{16}1h[8:1],,5,3,7h[8:1],,1,6,
2h[8:1],,{32}8,7,6,5,4,3,2,1,8,7,6,5,
{8}4b/3b,,2/5,,1-3[8:1]/6-4[8:1],,,,
2/5,,1/6,,8-2[8:1]/7-5[8:1],,,,
3h[8:1]/4h[8:1],,1/6,,2h[8:1]/5h[8:1],,8/7,,
1/6,,2/5,,3-7[8:1]/4-8[8:1],,,,
5b/6b,,7/4,,8-6[8:1]/3-5[8:1],,,,
7/4,,8/3,,1-7[8:1]/2-4[8:1],,,,
6h[8:1]/5h[8:1],,8/3,,7h[8:1]/4h[8:1],,1/2,,
8/3,,7/4,,6-2[8:1]/5-1[8:1],,,,
,,,,,,,,
{48}1b/8b,2/7,3/6,4/5,,,,,,,,,{8},,,,,,E
