&title=μ
&artist=Frums
&first=0
&des=Dororo
&lv_5=14
&inote_5=(190)
{16}
,,,,,,,,,,,,,,,,
1h[16:1],,1h[16:1],,1-5[1:2],,,,,,,,,,,,
,,,,,,,,,,,,,,,,
7-4[1:2],,,,,,,,,,,,,,,,
,,,,,,,,,,,,,,,,
3h[16:23],,,,,,5h[16:17],,,,,,,,,,
,,,,,,,,3-8[8:1]/5-8[8:1],,,,,,,,
1^4[8:1],,1^6[8:11],,,,,,5h[1:1],,,,,,,,
,,,,,,,,,,,,,,,,
8^5[8:1],,8^3[8:11],,,,,,4h[1:1],,,,,,,,
,,,,,,,,,,4b,,,,,,
1-6[8:1],,,,1^4[2:1],,,,,,5h[4:1],,,,,,
5-1[8:1],,,,5^2[2:1],,,,,,8h[4:1],,,,,,
8-3[8:1],,,,8^5[2:1],,,,,,4h[4:1],,,,,,
4-8[8:1],,,,4^7[2:1],,,,,,1h[4:1],,,,,,
1-5[8:1],,,,7h[2:1],,,,,,6h[4:1],,,,8,,
1-5[8:1],,,,3h[8:5],,,,4,,4h[8:3],,,,,,
1-5[8:1],,,,7h[2:1],,,,,,6h[4:1],,,,8,,
1-5[8:1],,,,3h[8:3],,,,4,,6h[8:3],,,,2,,
8-4[8:1],,,,2h[2:1],,,,,,3h[4:1],,,,1,,
8-4[8:1],,,,6h[8:5],,,,5,,5h[8:3],,,,,,
8-4[8:1],,,,2h[2:1],,,,,,3h[4:1],,,,1,,
8-4[8:1],,,,6h[8:3],,,,5,,3h[8:3],,,,7,,
1b,2,1,8,7,6,1b,8,1,2,3,4,7b,8,7,6,
5-1[2:1],,,,,,,,,,,,3,,3,,
3-6[8:1],,,4h[16:3],,,,,3-6[8:1],,,2h[16:3],,,,,
3-6[8:1],,,4h[16:3],,,,,3-7[8:1],,,7,,,6,,
6-3[8:1],,,5h[16:3],,,,,6-3[8:1],,,7h[16:3],,,,,
6-3[8:1],,,5h[16:3],,,,,6-2[8:1],,,2,,,3,,
3-6[8:1],,,3,7,7h[16:3],,,3-6[8:1],,,3,1,1h[16:3],,,
3-6[8:1],,,3,7,7h[16:3],,,4h[8:1],,5,4h[8:1],,3,4,,
6-3[8:1],,,6,2,2h[16:3],,,6-3[8:1],,,6,8,8h[16:3],,,
6-3[8:1],,,6,2,2h[16:3],,,5h[8:1],,4,5h[8:1],,6,5,,
3^6[8:1],,3h[16:1],,7,8,1,2,3^6[8:1],,3h[16:1],,7,8,1,2,
3^6[8:1],,3h[16:1],,7,8,1,2,,4,,4,5,4,5,,
3^8[8:1],,3h[16:1],,7,6,5,4,3^6[8:1],,3h[16:1],,7,8,1,2,
3^8[8:1],,3h[16:1],,7,6,5,4,,1,,1,8,1,8,,
6^3[8:1],,6h[16:1],,2,1,8,7,6^3[8:1],,6h[16:1],,2,1,8,7,
6^3[8:1],,6h[16:1],,2,1,8,7,,5,,5,4,5,4,,
6^1[8:1],,6h[16:1],,2,3,4,5,6^3[8:1],,6h[16:1],,2,1,8,7,
6^1[8:1],,6h[16:1],,2,3,4,5,
{24}
8,7,6,1,2,3,7,6,5,2,3,4,
{16}
1^6[32:125]/5^2[32:125],,,,,,,,,,,,,,,,
(185)
{16}
,,,,,,,,,,,,,,,,
(180)
{16}
,,,,,,,,,,,,,,,,
(175)
{16}
,,,,,,,,,,,,,,,,
(170)
{16}
,,,,1h[256:1],,,,1h[256:1],,,,1h[256:1],,,,
1-6[8:1],,,,1,,7-3[8:1],,,,7,,4-1[8:1],,,6,
,6,,,7-4[8:1],,4-8[8:1],,,3,,,2h[4:1],,,,
7-2[8:1],,,,7,,4-8[8:1],,,,4,,,6,,6,
,,7^4[8:1],,1-5[8:1],,7,,1,,,,26,,,,
4^1[8:1],,,,4,,6-2[8:1],,,,6,,8^3[8:1],,,7,
,7,,,6-3[8:1],,6,,6-1[8:1],,,,2,,,,
3,5,3,,6h[16:3],,,2h[16:3],,4,4,3,5,2,6,1,
8-3[8:1],,,,8,,2-6[8:1],,,,2,,5-8[8:1],,,3,
,3,,,2-5[8:1],,5-1[8:1],,,6,,,7h[4:1],,,,
2-7[8:1],,,,2,,5-1[8:1],,,,5,,,3,,3,
,,2^5[8:1],,8-4[8:1],,2,,8,,,,73,,,,
5^8[8:1],,,,5,,3-7[8:1],,,,3,,1^6[8:1],,,2,
,2,,,3-6[8:1],,3,,3-8[8:1],,,,7,,,,
6,5,6,,28,,3,4,3,,
{24}
1,2,3,7,6,5,
{16}
1,8,
1-5[8:1],,,,1^6[4:1],,,,6^3[4:1],,,,,,2,,
2-6[8:1],,,,2^5[4:1]/7^2[4:1],,,,,,,,,,,,
1-6[8:1],,,,4-1[8:1],,,,7-4[8:1],,,,,,8,,
8-4[8:1],,,,4^7[4:1]/8^3[4:1],,,,,,,,,,,,
6-2[8:1],,,,6^1[4:1],,,,1^4[4:1],,,,,,5,,
5-1[8:1],,,,5-2[4:1]/8-5[4:1],,,,,,,,,,,,
3^8[8:1],,,,6^3[8:1],,,,1^6[8:1],,,,,,4,,
4-1[8:1],,,,4-7[4:1]/7-4[4:1],,,,,,,,,,,,
8-4[8:1],,,,8^3[4:1],,,,3^6[4:1],,,,,,7,,
7-3[8:1],,,,7^4[4:1]/2^7[4:1],,,,,,,,,,,,
8-3[8:1],,,,5-8[8:1],,,,2-5[8:1],,,,,,1,,
1-5[8:1],,,,5^2[4:1]/1^6[4:1],,,,,,,,,,,,
3-7[8:1],,,,3^8[4:1],,,,8^5[4:1],,,,,,4,,
4-8[1:4],,,,4h[8:3],,,,,,,,,,,,
,,,,,,,,1,,,,,,,,
(160)
{16}
,,,,,,,,3,,,,,,,,
(150)
{16}
,,,,,,,,5,,,,,,,,
(140)
{16}
,,,,,,,,7^2[8:1],,,,,,,,
3h[4:7]/4,,4,,4,,4,,4,,4,,4,,4,,
4,,4,,4,,4,,4,,4,,4,,1h[1:2]/4,,
4,,4,,4,,4,,4,,4,,4,,4,,
4,,4,,4,,4,,4,,4,,4,,4,,
5h[4:7]/4,,4,,4,,4,,4,,4,,4,,4,,
4,,4,,4,,4,,4,,4,,4,,7h[1:2]/4,,
4,,4,,4,,4,,4,,4,,4,,4,,
4,,4,,4,,4,,4,,4,,4,,4,,
2h[4:7]/4,,4,,4,,4,,4,,4,,4,,4,,
4,,4,,4,,4,,4,,4,,4,,8h[8:11]/4,,
4,,4,,4,,4,,4,,4,,4,,4,,
4,,4,,4,,
{32}
1,8,1,8,
{24}
2,3,4,1,2,3,7,6,5,8,7,6,
{16}
2-5[8:1]/5-1[8:1],,,,,,,,
{32}
5b,4,3,2,1,8,5b,4,3,2,1,8,6b,5,4,3,
{16}
2-7[8:1]/7-4[8:1],,,,,,,,
{32}
7b,8,1,2,3,4,7b,8,1,2,3,4,6b,7,8,1,
{16}
2-5[8:1]/5-1[8:1],,,,,,,,
{32}
5b,4,3,2,1,8,5b,4,3,2,1,8,6b,5,4,3,
{16}
2h[16:7],,,,6h[16:3],,,,
{48}
2b/6b,37,48,,,,,,,8b/4b,73,62,,,,,,,5b/1b,,,,,,
{16}
7-4[8:1]/4-8[8:1],,,,,,,,
{32}
4b,5,6,7,8,1,4b,5,6,7,8,1,3b,4,5,6,
{16}
7-2[8:1]/2-5[8:1],,,,,,,,
{32}
2b,1,8,7,6,5,2b,1,8,7,6,5,3b,2,1,8,
{16}
7-4[8:1]/4-8[8:1],,,,,,,,
{32}
4b,5,6,7,8,1,4b,5,6,7,8,1,3b,4,5,6,
{16}
7h[16:7],,,,3h[16:3],,,,
{48}
7b/3b,62,51,,,,,,,1b/5b,26,37,,,,,,,4b/8b,,,,,,
{24}
2b,1,2,1,2,1,
{16}
2,3,4,5,6h[8:1]/8h[8:1],,,5h[8:1]/7h[8:1],,,46,,
{24}
7b,8,7,8,7,8,
{16}
7,6,5,4,3h[8:1]/1h[8:1],,,4h[8:1]/2h[8:1],,,53,,
{24}
2b,1,2,8,2,7,
{32}
3,,5,,4,,6,,1b,8,7,6,5,4,8b,1,2,3,4,5,1b,2,3,4,
{24}
7b,8,7,1,7,2,
{32}
6,,4,,5,,3,,8b,1,2,3,4,5,1b,8,7,6,5,4,8b,7,6,5,
{16}
4-8[4:7]/8-4[4:7],,,,,,,,,,,,,,,,
,,,,,,,,,,,,,,,,
,,,,,,,,,,,,,,,,
E
