&title=ちんこ音頭2022
&artist=くっちー
&first=0
&des=沙……发太!❤……舒服……啦!呜……啊!
&clock_count=4
&lv_5=14
&inote_1=
&inote_5=(182)
{1},,
{1}B6f/4h[2:3],,B6f/2h[2:3],,
{1}B1f/7h[2:3],,B1f/5>6[2:3],
{4},,2,3,
{4}4h[4:3]/E7,B7,B8,E1,3h[4:3]/E7,B6,B5,E5,
{4}8h[4:3]/E3,B3,B4,E5,7h[4:3]/E1,B1,B2,E3,
{1}8qq4[2:3]*pp4[2:3]/A4f,,
{1}6q4[1:1]/B1f,{4}8,1,2-6b[8:1],Cf,
{8}7/4,7,3,2,1h[4:1],,8,7-5^4[8:1],,2h[4:1],,3,3-8^7[8:1],,A8f,,
{8},1,2,2h[4:1],,5,6,6h[4:1],,3-1^8[8:1],7-5^4[8:1],3,7,,Cf,,
{8}8,1/2,3,3,6h[4:1],,5-3^2[8:1],5,,7-5^4[8:1],8-2^3[8:1],E7f,E1f,,6,6,
{8},1,2,3,4h[4:1],,7,7,,4-2^1[8:1],8-6^5[8:1],4,8,,Cf,,
{8}7/3,,E6f/B6/B5/1h[2:1],,,4^5-7[8:1],,2,,3h[4:1],,8,1,7^6-4[8:1],4,7,
{8}1,,2h[2:1]/E7f/B7/B6,,,8^7-5[8:1],,3,,4,,5^6-1[8:1],1,5,B2/B3/E3f,,
{8}4,6,7,7h[8:1],3,3h[8:1],5,5,{16}8h[8:1]/2h[8:1],,,8h[8:1]/2h[8:1],,,{8}6/4,7-3[8:1],,Cf,,
{8},1^2-5[8:1],5,1,7-4^3[8:1],4,B6f,,8b,,1b,,2b,,Cf,,
{4}3h[8:1]/5,3h[8:1]/5,3h[8:1]/6,3h[8:1]/6,
{4}2h[8:1]/4,2h[8:1]/B1f,2h[8:1]/B3f,2h[8:1]/8,
{4}7h[8:1]/1,7h[8:1]/1,7h[8:1]/2,7h[8:1]/2,
{4}5p1[4:1]/1,A5f/3p5[4:1]*pp5[4:1],,,
{4}2h[8:1]/5,1h[8:1]/4,2h[8:1]/5,1h[8:1]/4,
{4}8qq8[2:1]/2pp2[2:1],8/2,E5/E6,,
{4}3h[8:1]/B4f,3h[8:1]/B2f,2h[8:1]/8,1h[8:1]/7,
{4}6h[8:1]/5,6h[8:1]/5,6h[8:1]/5,6h[8:1]/5,
{4}B8f/2bx-6[8:1],B8f/2bx-5[8:1],B8f/2bx-4[8:1],B8f/2bx,
{4}B1f/7bx-3[8:1],B1f/7bx-4[8:1],B1f/7bx-5[8:1],B1f/7bx,
{4}B8f/4bx-1[8:1],B8f/4bx-7[8:1],B8f/4bx-1[8:1],B8f/4bx,
{4}B1f/5bx-8[8:1],B1f/5bx-2[8:1],B1f/5bx,Ch[8:1],
{4}1h[8:1]/7,1h[8:1]/7,1h[8:1]/5,1h[8:1]/5,
{4}4bx-7b[8:1],{32}4bx-1b[8:1],B5,B6,E7,A7f,,,,4bx,B3,B2,E2,A1f,,,,A8f,,,,,,,,
{4}7h[8:1]/1,7h[8:1]/1,7h[8:1]/2,7h[8:1]/2,
{32}6h[8:1]/3bx,4bx,5bx,,,,,,6h[8:1]/3bx,4bx,5bx,,,,,,6h[8:1]/3bx,4bx,5bx,,,,,,B2f,,,,,,,,
{4}7h[8:1]/3,7h[8:1]/3,6h[8:1]/2,5h[8:1]/1,
{4}4bx-8b[8:1],4bx/8qq8[4:1]*pp8[4:1],Cf,,
{4}2h[8:1]/7,2h[8:1]/7,3h[8:1]/6,3h[8:1]/6,
{8}5bx-8^1b[8:1]/4bx-1^8b[8:1],,5bx/4bx,D1f,,,6bx/3bx,,
{32}8bhx[8:1]/E4,B4,B5,E6f,,,,,8bhx[8:1]/E4,B4,B5f,E6,,,,,8bhx[8:1]/E4,B4f,B5,E6,,,,,8bhx[8:1]/E4f,B4,B5,E6,,,,,
{32}1bhx[8:1]/E4,B4,B5,E6f,,,,,8bhx[8:1]/E4f,B4,B5
,E6,,,,,1bhx[8:1]/E4,B4,B5f,E6,,,,,7bhx[8:1]/E4,B4f,B5,E6,,,,,
{32}4bhx[8:1]/E8,B8,B1,E2f,,,,,4bhx[8:1]/E8,B8,B1f,E2,,,,,4bhx[8:1]/E8,B8f,B1,E2,,,,,4bhx[8:1]/E8f,B8,B1,E2,,,,,
{4}A7f/3pp7[2:1]*qq7[2:1],,,,
{8}6h[4:3],,4h,,,,1h,,5h[4:3],,3h,,,,1h,,
{4}2h[4:3],8h,,5h,1h[4:3],7h,,4h,
{4}7h[4:3],1h,,3h,6h[4:3],8h,,3h,
{4}4h[4:3],6h,,8h,3h[4:1],6h,2h[4:1],5h,
{4}1h[4:3]/4,5,6,7,2h[4:3]/4,5,6,7,
{4}6h[4:3]/8,1,2,3,5h[4:3]/8,1,2,3,
{16}7,,5,6,5,,4,,2,,4,3,4,,5,,8,,5,7,5,,4,,1,,4,2,4,,5,,
{16}7,6,7,6,8,5,8,5,1,4,1,4,2,3,2,3,
{1}2<3[2:1],
{1}Chf[4:3],
{16}7,1,7,,3,5,,5,2,8,,8,1,,7/2,,4,6,4,,7,1,,1,6,4,,4,5,,6/3,,
{16}2,1,2,,7,3,,3,6,5,7,5,6,,8/4,,3,4,3,,6,2,,2,7,8,,8,6,,5/1,,
{16}2,1,2,,8-4[8:1],3,,3,8<5[8:1],2,,2,8,,1,,6,5,6,,4-8[8:1],7,,7,4>1[8:1],6,,6,4,,5,,
{16}7,3,7,,1>4[8:1],6,,6,1-5[8:1],8,,8,1,,7,,2,4,2,,6,5,7,4,8b,8b,3b,,5b,1b,7b,4b,
{16}3-7[8:1],8x,7x,,3-8[8:1],6,,6,3^1[8:1],5,,5,3,,4,,6-2[8:1],1,2,,6-1[8:1],3,,3,6^8[8:1],4,,4,6,,5,,
{16}1p5[8:1],4,3,,1,2,,2,8,1,7,1,8,,2,,3-7[8:1],7,6,,3,5,,5,Cf,B6f,,B1f,B3f,,E8f,,
{16}2-6[8:1],7,6,,2<7[8:1],4,,4,2>5[8:1],5,,5,2,,7,,6-2[8:1],1,2,,6<1[8:1],4,,4,6>3[8:1],3,,3,6,,1,,
{16}7-3[8:1],4,3,,7<4[8:1],1,,1,7>2[8:1],2,,2,7,,4,,3b,3b,8b,,4b,7b,1b,5b,2b,2b,6b,,4b,4b,8bx,8bx,
{4}3h[8:1]/6x-1[8:1],3h[8:1],3h[8:1]/1x-5[8:1],3h[8:1],
{4}1h[8:1]/4x-7[8:1],1h[8:1],1h[8:1]/7x-3[8:1],1h[8:1],
{4}8h[8:1]/2x-6[8:1],8h[8:1],8h[8:1]/6x-3[8:1],8h[8:1],
{4}6h[8:1]/3x-8[8:1],6h[8:1],6h[8:1]/8x>3[8:1],6h[8:1],
{4}4h[8:1]/6x-8[8:1],4h[8:1],3h[8:1]/6x-1[8:1],3h[8:1],
{4}5h[8:1]/3x-1[8:1],5h[8:1],6h[8:1]/3x-8[8:1],6h[8:1],
{4}1h[8:1]/7x<5[8:1],1h[8:1],2h[8:1]/7x-4[8:1],2h[8:1],
{16}1x,8x,7x,6x,5x,4x,3x,2x,Ch[4:1],,,,,,,,
{32}5hx[4:1]/B5,C,B1,A1f,,,,,4hx[4:1]/B4,C,B8,A8f,,,,,5hx[4:1]/B5,C,B1,A1f,,,,,4hx[4:1]/B4,C,B8,A8f,,,,,
{32}6hx[4:1]/B6,C,B2,A2f,,,,,3hx[4:1]/B3,C,B7,A7f,,,,,6hx[4:1]/B6,C,B2,A2f,,,,,3hx[4:1]/B3,C,B7,A7f,,,,,
{32}7hx[8:1]/E8,B7,B6,E6f,,,,,7hx[8:1]/E7,B7,B8,E1f,,,,,7hx[8:1]/E8,B7,B6,E6f,,,,,7hx[8:1]/E7,B7,B8,E1f,,,,,
{32}3hx[8:1]/E4,B3,B2,E2f,,,,,3hx[8:1]/E3,B3,B4,E5f,,,,,3hx[8:1]/E4,B3,B2,E2f,,,,,3hx[8:1]/E3,B3,B4,E5f,,,,,
{16}7/1,,7/1,,7/1,,4,5,8/2,,8/2,,8/2,,4,5,1/6,,1/6,,1/6,,3,4,6,5,6,5,6,,C,,
{16}1,6,8,7,1,6,8,7,3,4,2,5,3,4,2,5,
{8}3-7b[8:1],,3pp7[2:1]*qq7[2:1]/A7f,,,,,,
{4},,,,,,,C/B8/B1/E1f/B5/B4/B6/B3/E5,
{32}3x,2x,1x,,,,,,6x,7x,8x,,,,,,3x,2x,1x,,,,,,6x,7x,8x,,,,,,3x,2x,1x,,,,,,6x,7x,8x,,,,,,3x,2x,1x,,,,,,6x,7x,8x,,,,,,
{32}3x/5,2x,1x,,,,,,6x/4,7x,8x,,,,,,3x/5,2x,1x,,,,,,6x/4,7x,8x,,,,,,3x/5,2x,1x,,,,,,6x/4,7x,8x,,,,,,3x/5,2x,1x,,,,,,6x/4,7x,8x,,,,,,
{32}3x/B5,2x,1x,,,,,,6x/B4,7x,8x,,,,,,3x/B5,2x,1x,,,,,,6x/B4,7x,8x,,,,,,3x/B5,2x,1x,,,,,,6x/B4,7x,8x,,,,,,3x/B5,2x,1x,,,,,,6x/B4,7x,8x,,,,,,
{4}E6/E5/A5f/1b-7^6[8:1],E6/E5/A5f/1b-3^4[8:1],E6/E5/A5f/1b-7^6[8:1],E6/E5/A5f/1b,
{4}E4/E5/A4f/8b-2^3[8:1],E4/E5/A4f/8b-6^5[8:1],E4/E5/A4f/8b-2^3[8:1],E4/E5/A4f/8b,
{4}E2/E1/A1f/5b-3^2[8:1],E2/E1/A1f/5b-7^8[8:1],E2/E1/A1f/5b-3^2[8:1],E2/E1/A1f/5b,
{4}E8/E1/A8f/4b-6^7[8:1],E8/E1/A8f/4b-2^1[8:1],E8/E1/A8f/4b-6^7[8:1],E8/E1/A8f/4b,
{16}2x/8x,,2x/8x,,2x/8x,,5,4,1/7,,1/7,,1/7,,5,4,8/3,,8/3,,8/3,,6,5,3,4,3,4,3,,C/B8/B1/E1f/B5/B4/B6/B3/E5,,
{4},,,,,,,C/B8/B1/E1f/B5/B4/B6/B3/E5,,,,,E
