&title=Grayed Out-Antifront-
&artist=Getty vs. DJ DiA
&first=1.3
&des=Hanario
&lv_5=14
&lv_6=14
&inote_5=(190)
{2}3qq7b[4:6]/5xb,5,5,5,8v3[4:2]/5,5,
{8}5h[8:2]/3h[4:1],,,4h[8:2]/6h[8:2],,,5/7,,
{2}7s3-5[4:7],1,1,1,2h[1:1],3,
{8}4,
{16},6,
{8}5,47,6,25,3,4,
{16}6hb[8:3],,,,
{8}4,4-6[8:1],,2,,1,
{16}1-3[8:1],,,,7,,7h[8:4],,,,4,,4,,4,,
{16}3h[8:3],,,,
{8}5,5-3[8:1],,7,,8,
{16}8-6[8:1],,,,2,,2h[8:4],,,,5,,5,,5,,
{16}7hb[8:3],,,,
{8}4,4-8[8:1],,2,,1,
{16}1-5[8:1],,,,7,,7h[8:4],,,,4,,4,,4,,
{16}3,6,3,6,3,6,3,6,2,5,2,5,2,5,2,5s1[16:9],
{1}1-5[16:8],
{8}2xhb[8:5],,4,4,,5,,6,
{8}7xhb[8:5]/A3/D3/D4,,8,8,,1,,2,
{8}3xhb[8:5]/A7/D7/D8,,1,1,,8,,7,
{8}6xhb[8:5]/A2/D3/D2,,4,4,,3,,2,
{8}5xb/7xb,6,6,2xb/4xb,3,3,4xb/6xb,5xb,
{16}5xb,3,6,4,7,5,8xb,1,7,2,6xb,3,5s1-7[4:3]*z1-3[4:3],4,6xb,3,
{1}5xb,
{16}A7/D8/D7,,,
A3/D3/D4,,,A5/D5/D6,,
{32}1xw5b[8:1],,,,,,,,
{32}A1f,,,,,,,,
{16}2xb/5xb,,,,3,,3,4,2,,3,4,2,,3,,
{8}2/5,2,74,7,{16}6,5,7,4,
{8}6,4/7,,1-5[8:1],1,6,6,
{16}3,4,,6,5,,
{8}35,1,35,7,3/5-2b[8:1]*-8b[8:1],1,5,,
{16}7xb/4xb,,,,6,,6,5,7,,6,5,7,,6,,
{8}7/4,7,25,2,{16}3,4,2,5,
{8}3,5/2,,8-4[8:1],8,3,3,
{16}6,5,,3,4h[16:4],,
{8},8b,4b/2b,6b,2b/4b-7b[8:1]*-1b[8:1],8b,4b,,
{8}3,5-7-3[4:1],5,,4-8-2[4:1],4,,5-7-3[4:1],
{8}5,,2,2,{16}5x,4x,6,3,7,2,8,1,
{8}7,1-3-7[4:1],1,,8-4-6[4:1],8,,1-3-7[4:1],
{8}1,,6,6,{16}1x,8x,2,7,3,6,4,5,
{16}3,4,3,6,5,6,3,4,2,6,5,7,1,3,2,8,
B1,B7,B3,B5
,B2,B8,B4,B6,E2,E7,E4,E1,
E3,E8,E5,E6,
{32}
1xb,2x,3x,4x,5xb,6x,7x,8x,1xb,2x,3x,4x,5xb,6x,7x,8x,
{32}E2,E3,E4,E5,E6,E7,E8,E1,E2,E3,E4,E5,E6,E7,E8,E1,
{16}5x,,,5x,,,5x,,
{8}1w5b[8:1],,1b,,
{2}3xp2^8[4:7],B5,{4}D6,A5,D5,,
{8}5,,5,,6h[2:1],,5,4,3h[2:1],,2,1,8h[2:1],,1,,
{2}2q3^5[4:7],B8,{4}D8,A8,D1,,
{8}8,,8,,7h[2:1],,8,1,2h[2:1],,3,4,5h[4:1],,2,,
{8}34,,34,2,34,5,34,2,
{8}65,,65,7,65,4,65,7,
{8}21,,21,3,21,8,21,3,
{8}78,,78,6,78,1,78,6,
{8}4xb/2xb,3,4,7xb/5xb,6,5,5xb/2xb,1xb,
{8}8xb/6xb,7,8,3xb/1xb,2,1xb,8xb,7xb,
{8}7,7,7,7,7,7,7,7,
{16}A3/D4/D3,,,A7/D7/D8,,,A5/D5/D6,,
{4}1v6b[8:1]*v4b[8:1],1b,
{16}8x/3x-5[8:1],,2,1,3,,8,,6,5,7,,3,4,2,,
16,,7,8,6,1,5,,1-5[8:1],,7-1[8:1],,1,,7,,
{16}3,,6,6,5,,47,,3,3,4,,6,5,7,,
83,,2,1,3,8,4/7V51[4:1],,,,
{8}2b,2b,2b,
{16}2x/6x-4[8:1],,7,8,6,,1,,3,4,2,,6,5,7,,
83,,2,1,3,8,4,,8-4[8:1],,2-8[8:1],,8,,2,,
{16}6,,3,3,4,,52,,6,6,5,,3,4,2,,
18,,18,27,36,,3^5-1[4:1]/6,,,,{8}7b,7b,7b,
{8}6,5-7-3[4:1],5
,5,4-8-2[4:1],4,4,5-7-3[4:1],5,5,2,2,
{16}1,8,2,7,3,6,4,5,
{8}3,4-2-6[4:1],4
,4,5-1-7[4:1],5,5,4-2-6[4:1],4,4,7,7,
{16}1x,8x,2,7,3,6,4,5,
4,5,4,5,4,5,4,5,3,6,3,6,3,6,3,6,2,7,2,7,2,7,2,7,1,8,1,8,1,8,1,8,
3,3,5,5,1,1,7,7,3,3,4,4,5,5,6,6,
{16}
E3/B2/B3,,,B5,B4,,E7/B6/B7,,
{4}1w5b[8:1],
{32}1b,,,,,,,,
{8}2x-6[8:1]/7x-5[8:1],,2-4[8:1]/7-1[8:1],,2/7-5-1[4:1],,7/2-4-8[4:1],2,,7,,1pp2[4:1],,6,7,8,
{8}7x-3[8:1]/2x-4[8:1],,7-5[8:1]/2-8[8:1],,7/2-4-8[4:1],,2/7-5-1[4:1],7,,2,,8qq7[4:1],,3,2,1,
{8}2x-5[8:1]/5x-8[8:1],,2/5x-1[8:1],,5x/8-6-2[4:1],,2-4-8[4:1],2,,1,,4-2-6[4:1],,6,7,8,
{8}7x-4[8:1]/4x-1[8:1],,7/4x-8[8:1],,4x/1-3-7[4:1],,7-5-1[4:1],7,,8,,5-7-3[4:1],,3,2,1,
{8}1,8-6-2[4:1],7
,8,1-5-3[4:1],8,1,8-6-2[4:1],7,8,4,4,
{16}6,5,7,4,8,3,1,2,
{8}8,1-3-7[4:1],2
,1,8-4-6[4:1],1,8,1-3-7[4:1],2,1,5,5,
{16}3,4,2,5,1,6,8,7,
{16}3,4,3,6,5,6,3,4,2,6,5,7,1,3,2,8,
B1,B7,B3,B5
,B2,B8,B4,B6,E2,E7,E4,E1,
E3,E8,E5,E6,
{32}
1xb,2x,3x,4x,8xb,7x,6x,5x,1xb,2x,3x,4x,8xb,7x,6x,5x,
{32}1,2,3,4,5,6,7,8,1,2,3,4,5,6,7,8,
{16}1/5xb,,,,3,7,1-5b[8:1],8,2,,1b,,,,,,,,,,,,,,,,,,,,,,,,,,,,,,,,,,,,,,,,,,,,,,,,,,,,,,,,,,,,,,,,,,,,,,,,,,,,,,,,,,,,,,,,,,,,,,,,,,,,,,,,,,,,,,,,,
,,,,,,,,,,,,,,,,,,,,,,,,,,,,,,,,,,,,,,,,,,,,,,,,,,,,,,,,,,,,,,,,,,,,,,,,,,,,,,,,,,,,,,,,,,,,,,,,,,,,,,,,,,,,,,,,,,,,,,,,,,,,,,,,,,,,,,,,,,,,,,,,,,,,,,,,,,,,,,,,,,,,,,,,,,,,,,,,,,,,,,,,,,,,,,,,,,,,,,
&inote_6=(190)
{2}3h[1:2]/5,5,5,5,6h[2:2],4,
{8}5h[2:1],,,,4h[4:1],,3h[4:1],,
{64}7s3[4:5],3?-5[1.8947368421052631578947368421053##0.63157894736842105263157894736842],,,,,,,,,,,,,,,,,,,,,,,,,,,,,,,1,,,,,,,,,,,,,,,,,,,,,,,,,,,,,,,,1,,,,,,,,,,,,,,,,,,,,,,,,,,,,,,,,1,,,,,,,,,,,,,,,,,,,,,,,,,,,,,,,,2h[1:1],,,,,,,,,,,,,,,,,,,,,,,,,,,,,,,,,5,,,,,,,,,,,,,,,,,,,,,,,,,,,,,,,
{8}6,
{16},5,
{8}6,47,6,25,3,45,
{16}6h[8:3],,,,
{8}5,5h[4:1],,4h[4:1],,3,
{16}36,,4,5,3,,6h[8:4],,,,5,,5,,5,,
{16}3h[8:3],,,,
{8}4,4h[4:1],,5h[4:1],,6,
{16}47,,6,5,6,,2h[8:4],,,,4,,5,,6,,
{16}7-4[8:1],,,,
{8}3-7[8:1],3,,5-1[8:1],,3,
{16}2,,8x,2,8,,3h[2:1],,,,4,,5,,6,,
{16}2-5[8:1],,,,
{8}6-2[8:1],6,,4-8[8:1],,6,
{16}7,,1x,7,1,,6-3[4:1],,,,4,,4,,4,,
{8}2h[8:5],,4,4,,5,,6,
{8}7h[8:5]/A3/D3/D4,,8,8,,1,,2,
{8}3h[8:5]/A7/D7/D8,,1,1,,8,,7,
{8}6h[8:5]/A2/D3/D2,,4,4,,3,,2,
{8}5b/7b,6,6,2b/4b,3,3,4b/6b,5,
{16}5,3,6,4,7,5,8b,1,7,2,6b,3,
{64}5s1[4:2]*z1[4:2],1?-3[0.94736842105263157894736842105263##0.31578947368421052631578947368421]*-7[0.94736842105263157894736842105263##0.31578947368421052631578947368421],,,4,,,,6b,,,,3,,,,
{1}5b,
{6}A7/D8/D7,
A3/D3/D4,A5/D5/D6,
{4}1w5[8:1],
{32}1b,,,,,,,,
{4}6x-3[8:1],6/2-7[8:1],2/5-8[8:1],
{8}1-5[8:1]/5,
{8}1,7-3[8:1],7,4,4,
{16}6,5,6,5,
{8}6,4/7-3[8:1],
,1-5[8:1],1,6,6,
{16}3,4,,6,5,,
{8}35,1,35,7,3/5-2[8:1]*-8[8:1],1,5,,
{4}3x-6[8:1],3/7-2[8:1],7/4-1[8:1],
{8}8-4[8:1]/4,
{8}8,2-6[8:1],2,5,5,
{16}3,4,3,4,
{8}3,5/2-6[8:1],
,8-4[8:1],8,3,3,
{16}6,5,,3,4,,
{8}64,8,64,2,6/4-7[8:1]*-1[8:1],8,4,,
{8}2,7V51[4:1],7
,,
{64}8-4[8:1],4?-2[0.47368421052631578947368421052632##0.15789473684210526315789473684211],,,,,,,8,,,,,,,,,,,,,,,,7V51[4:1],,,,,,,,7,,,,,,,,,,,,,,,,3,,,,,,,,3,,,,,,,,
{16}5x,4x,6,3,7,2,8,1,
{8}7,2V48[4:1],2
,,
{64}1-5[8:1],5?-7[0.47368421052631578947368421052632##0.15789473684210526315789473684211],,,,,,,1,,,,,,,,,,,,,,,,2V48[4:1],,,,,,,,2,,,,,,,,,,,,,,,,6,,,,,,,,6,,,,,,,,
{16}4x,5x,3,6,2,7,1,8,
{16}3,4,3,6,5,6,3,4,2,6,5,7,1,3,2,8,
B1,B7,B3,B5
,B2,B8,B4,B6,E2,E7,E4,E1,
E3,E8,E5,E6,
{32}
1b,2x,3x,4x,8b,7x,6x,5x,1b,2x,3x,4x,8b,7x,6x,5x,
{32}A1,A2,A3,A4,A5,A6,A7,A8,A1,A2,A3,A4,A5,A6,A7,A8,
{6}5x,5x,5x,
{8}1w5[8:1],,1b,,
{128}3xp2[4:5],2?^8[1.8947368421052631578947368421053##0.63157894736842105263157894736842],,,,,,,,,,,,,,,,,,,,,,,,,,,,,,,,,,,,,,,,,,,,,,,,,,,,,,,,,,,,,,,
{2}B5,
{4}D6,A5,D5,,
{8}5,5,4,4,6h[2:1],,5,4,3h[2:1],,4,5,6h[2:1],,5,,
{128}2xq3[4:5],3?^5[1.8947368421052631578947368421053##0.63157894736842105263157894736842],,,,,,,,,,,,,,,,,,,,,,,,,,,,,,,,,,,,,,,,,,,,,,,,,,,,,,,,,,,,,,,
{2}B8,{4}D8,A8,D1,,
{8}8,8,1,1,7h[2:1],,8,1,2h[2:1],,1,8,7h[4:1],,8,,
{8}34,,34,2,34,5,34,2,
{8}65,,65,7,65,4,65,7,
{8}21,,21,3,21,8,21,3,
{8}78,,78,6,78,1,78,6,
{8}1bv4[8:1],4,1,8bv5[8:1],5,8,2b-6[8:1],6,2b,
7-3[8:1],3,7b,1V35[8:1],5,1b,7,
{8}C,C,C,C,C,C,C,C,
{6}A2/D3/D2,A6/D6/D7,A4/D5/D4,
{4}8w4[8:1],8b,
{16}1x-4[8:1],,6,6,1,,5-8[8:1],,2,2,5,,3,4,2,,
7,,7,4,6,3,5,,1-5[8:1],,8-4[8:1],,1,,8,,
{16}2-6[8:1],,6,6,2,,7-3[8:1],,3,3,7,,4,5,4,,
6,,2,5,3,6,4,,7b-2[8:1],,3b-6[8:1],,7b,,3b,,
{16}8-5[8:1],,3,3,8,,4-1[8:1],,7,7,4,,6,5,7,,
2,,2,5,3,6,4,,8-4[8:1],,1-5[8:1],,8,,1,,
{16}7-3[8:1],,3,3,7,,2-6[8:1],,6,6,2,,5,4,5,,
3,,7,4,6,3,5,,2b-7[8:1],,6b-3[8:1],,2b,,6b,,
{8}2,5V73[4:1],5
,5,
{128}4-8[8:1],8?-2[0.47368421052631578947368421052632##0.15789473684210526315789473684211],,,,,,,,,,,,,,,
{8}4,4,5V73[4:1],5,5,1,1,
{16}7,8,6,1,5,2,4,3,
{8}5,4V26[4:1],4
,4,
{128}5-1[8:1],1?-7[0.47368421052631578947368421052632##0.15789473684210526315789473684211],,,,,,,,,,,,,,,
{8}5,5,4V26[4:1],4,4,8,8,
{16}2,1,3,8,4,7,5,6,
4,5,4,5,4,5,4,5,3,6,3,6,3,6,3,6,2,7,2,7,2,7,2,7,1,8,1,8,1,8,1,8,
3,3,5,5,1,1,7,7,3,3,4,4,5,5,6,6,
{8}
A3/D3/D4,A5/D5/D6,A7/D8/D7,C,
{4}1w5[8:1],
{32}1b,,,,,,,,
{8}2x-6[8:1]/7x-5[8:1],,2-4[8:1]/7-1[8:1],,2/7V51[4:1],,7/2V48[4:1],2,,7,,1pp2[4:1],,6,7,8,
{8}7x-3[8:1]/2x-4[8:1],,7-5[8:1]/2-8[8:1],,7/2V48[4:1],,2/7V51[4:1],7,,2,,8qq7[4:1],,3,2,1,
{8}2x^5[8:1]/5x^8[8:1],,2/5-1[8:1],,
{128}5/8^6[8:1],6?-2[0.47368421052631578947368421052632##0.15789473684210526315789473684211],,,,,,,,,,,,,,,
{8},
{128}2^4[8:1],4?-8[0.47368421052631578947368421052632##0.15789473684210526315789473684211],,,,,,,,,,,,,,,
{8}2,A2f,1,,
{128}4^2[8:1],2?-6[0.47368421052631578947368421052632##0.15789473684210526315789473684211],,,,,,,,,,,,,,,
{8},5,5,5,
{8}7x^4[8:1]/4x^1[8:1],,7/4-8[8:1],,
{128}4/1^3[8:1],3?-7[0.47368421052631578947368421052632##0.15789473684210526315789473684211],,,,,,,,,,,,,,,
{8},
{128}7^5[8:1],5?-1[0.47368421052631578947368421052632##0.15789473684210526315789473684211],,,,,,,,,,,,,,,
{8}7,A7f,8,,
{128}5^7[8:1],7?-3[0.47368421052631578947368421052632##0.15789473684210526315789473684211],,,,,,,,,,,,,,,
{8},4,4,4,
{8}2,8V62[4:1],8
,8,
{128}1-5[8:1],5?-3[0.47368421052631578947368421052632##0.15789473684210526315789473684211],,,,,,,,,,,,,,,
{8}1,1,8V62[4:1],8,8,4,4,
{16}6,5,7,4,8,3,1,2,
{8}8,1V37[4:1],1
,1,
{128}8-4[8:1],4?-6[0.47368421052631578947368421052632##0.15789473684210526315789473684211],,,,,,,,,,,,,,,
{8}8,8,1V37[4:1],1,1,5,5,
{16}3,4,2,5,1,6,8,7,
{16}3,4,3,6,5,6,3,4,2,6,5,7,1,3,2,8,
B1,B7,B3,B5
,B2,B8,B4,B6,E2,E7,E4,E1,
E3,E8,E5,E6,
{32}
1b,2x,3x,4x,8b,7x,6x,5x,1b,2x,3x,4x,8b,7x,6x,5x,
{32}1/Cf,2,3,4,5,6,7,8,Cf/1,2,3,4,5,6,7,8,
{16}1/5b,,,,3,7,1-5[8:1],8,2,,1b,,,,,,,,,,,,,,,,,,,,,,,,,,,,,,,,,,,,,,,,,,,,,,,,,,,,,,,,,,,,,,,,,,,,,,,,,,,,,,,,,,,,,,,,,,,,,,,,,,,,,,,,,,,,,,,,,
,,,,,,,,,,,,,,,,,,,,,,,,,,,,,,,,,,,,,,,,,,,,,,,,,,,,,,,,,,,,,,,,,,,,,,,,,,,,,,,,,,,,,,,,,,,,,,,,,,,,,,,,,,,,,,,,,,,,,,,,,,,,,,,,,,,,,,,,,,,,,,,,,,,,,,,,,,,,,,,,,,,,,,,,,,,,,,,,,,,,,,,,,,,,,,,,,,,,,,
