&title=サンセットバスストップ
&artist=トーマ; GUMI
&first=0.83
&des=有明/Ariake_
&lv_5=13+
&inote_5=(100){16}2b/7b,,3,3,4,2,6,5,7,3,5h[8:1],,2,4,1h[16:4],,,,4,2,5-8[8:1],5,,3,,,3,7,4-1[8:1],4,,,
{16}8b,,6,6,1,7,3,8,2h[8:1],,4h[8:1],,6h[8:1],,8h[16:4],,,,5,7,3p7[8:1],3,,6,,,5,4,4^7[8:1],3,,2,
{16}2b,,3,3,4,2,6,6,5,7,3h[8:1],,1,4,8h[16:4],,,,5,7,4-1[8:1],4,,6,,,6,2,5-8[8:1],5,,,
{16}1b,,3,3,8,2,6,1,7h[8:1],,5h[8:1],,3h[8:1],,1h[16:4],,,,4,2,6v1[8:1],6,,3,,,4,8,5,5,
6,1,
{16}7h[8:1],,3,4,2h[8:1],,6,5,7h[8:1],,4,5,3,4,2,6,6v3[32:4],4,,,3,,2,2,,4h[16:3]/2,,,3,4b/5,
6,5,
{16}7h[8:1],,3,4,1h[8:1],,5,4,7h[8:1],,5,6,3,5,2h[8:2],,,,4,3,8b-4[8:1],,1/7,,2,2,,,4,5,3/6,,
{16}2h[8:1]/4b,,6,5,7h[8:1],,3,4,2h[8:1],,5,4,6,5,7,3,3v6[32:4],5,,,6,,7,7,,5h[16:3]/7,,,6,5b/4,
3,4,
{16}2h[8:1],,6,5,8h[8:1],,4,5,2h[8:1],,4,3,6,4,7h[8:2],,,,5,6,1bV38[16:3],,8,,7,7,,,7,6,5/1,,
2b/6b^3[8:1],,3,3,,2,,2,4V62[16:3],,
1,,2V48[16:3],2,1,1,,,1,,2h[16:4]/1b,,,,5,4/6h[16:3],,,5,4b/7b,,,
5b/2b^5[8:1],,6,6,,7,,7,5V37[16:3],,
8,,7V51[16:3],7,8,8,,,8,,8b/7h[8:2],,,,5,6/4h[16:3],,,5>1[8:1],6,7,,8b,,,6,6h[16:3],,,4,4h[16:2],,3,4,5,6>3[16:3],,,3^1[8:1],,1^7[8:1],,7^5[8:1],,5^3[8:1],,3,,,1h[16:3],,,3p6[8:1],,1b,,,2,2h[16:3],,,4,4h[16:2],,6,6h[16:2],,8h[8:1],,1,
1h[8:3],,3,,5,,7,,8z4[8:1]`1s5[8:1],,,,,,,,
8b/4h[8:1],,2,,5,1,6,8h[8:1],,6,5-1[8:1],4,3-7[8:1],,5-8[8:1],,3,,5,,1,,2pp1[16:4]/8,2/8^5[16:3],,,,,,,,,3,4,6^3[8:1],5,7,1,1,,2,1,7,8,4v2[32:4],,3,6,
4b/5,,7,7,4/8,,3,5,2V46[16:3]/6,2/6,,,6/2,8b,,,
5h[8:2]/7b,,1,,6,5,4,3h[8:1],,4,4-8[8:1],5,6-2[8:1],,4^1[8:1],,6,,4,,8-5[8:1],,3qq4[16:4],3,,,,,6,,7,,8h[8:2]/4b,,,3,3h[8:1],,7,3,5/2h[16:2],,
6,5,4,3,5,6,2/7,2h[32:1]/7h[32:1],3/6,4/5,3/6,2/7,8z4[8:2]/1,8/1s5[16:3],,,,,,,,,
4h[8:1],,,4h[8:1],,,6qq3[16:9],,3,,,,,,,,1h[8:1],,,1h[8:1],,,3pp6[16:9],,2,,,,,,,,3h[8:1],,,3h[8:1],,,5qq8[8:5],,1,,,,,,,,1h[8:1],,,1h[8:1],,,8<3[16:4],,3,,,,2,,,,
8h[8:1],,,,6h[8:1],,,,4pp5[8:3]/3h[8:1],,,,2h[8:1],,,,3h[8:1],,,,5h[8:1],,,,7pp8[16:6]/6,,,,5h[8:1],,,,6h[8:1],,,,7h[8:1],,,,4pp1[8:5]/8,,,,8h[8:1],,,,7h[8:1],,,,6h[8:1],,,,2-5[8:1]/5,,,,6h[8:1],,,,
6/4h[8:1],,6,,7/4h[8:1],,7,,6/5h[8:1],,6,,7/3h[8:1],,7,,4/6,,4/6,,3h[16:1]/7h[16:1],,3h[16:1]/7h[16:1],,2h[16:1]/8h[16:1],,2h[16:1]/8h[16:1],,1-5[8:1],8/2,7/3,,5bV38[16:3]/1b,,7,,6,,7qq8[16:4],7,,1,,2,2,,3,,7/4,,{24}6,5,6,{16}4qq5[8:2],,8,8,,7,,6,6v8[16:2],,7/2v4[8:1],,6,,2,,1,,8/5,,{12}7h[12:2],5,3,1h[12:2],3,5,
{16}7/2,,{24}1,8,1,{16}7,,6/4,,7<3[16:3]/3,3/7,,,7/3,1b,,,2^5[8:1]/5,,1/7,,8,,7,{32}7,6,5,,4,,3,,5,6,7,,4,,3,,5,,6h[8:1],,1,,2h[8:1],,7,,8h[8:1],,2,,3h[16:1],,4^6[32:3],,,,2,,,,3,,3,,,,2,,3,,{16}4h[8:1]/7b,,7,6,5h[8:1],,7,6,5h[8:1],,8,7,6h[8:1],,1,2,3b/5b,{16}6,5,7,{16}8b/4b,3,2,6,
1b/5h[8:1],,7,,4,8,3,1h[8:1],,3,4-7[8:1],5,6-2[8:1],,4^1[8:1],,6,,4,,8,,7>4[16:4]/1,7/1<5[16:3],,,,,,,,,6,5,3^6[8:1],4,2,8,8,,7,8,2,1,5pp7[32:5],,6,3,
5b/4,,2,2,5/1,,6,5,7V53[16:3]/3,7/3,,,3/7,1b,,,
4h[8:2]/8b,,2,,3,4,5,6h[8:1],,5,5-2[8:1],4,3-8[8:1],,5^8[8:1],,3,,5,,1^4[8:1],,7pp6[16:4],7,,,,,3,,2,,1h[8:2]/5b,,,6,6h[8:1],,2,6,4/5h[16:2],,
3,4,5,6,4,3,7/2,7h[32:1]/2h[32:1],8/1,2/7,3/6,4/5,3/6,2/7,1/8,1h[16:3],,,8,2,3/7,,
3bq5[8:2],,3,,5,,6,,7p5[8:2],,7,,4,,3,,2q5[8:2],,2,,5,,6,,6p3[8:2],,6,,3,,2,,
1q3[8:2],,1,,5,,6,,7p4[8:2],,7,,4,,3,,
2v3[8:1],,2,,6,,5,,4/3,2,4<1[16:3]/1,,,2b/3b,,,
3bqq4[8:2],,3,,4,,5,,6qq7[8:2],,6,,8,,1,,
2pp1[8:2],,2,,1,,8,,6pp5[8:2],,6,,5,,4,,
1^4[8:1],,1,,5,,5,,7,{32}8z4[16:56]/2,7/3-7[8:25],6/4,,4/6,,,,,,,,,,,,,,,,,,,,,
