&title=秘密
&artist=はるまきごはん
&first=-1
&des=
&des_5=Parallel
&lv_5=13
&inote_5=(135){4},{8},,,,,8/7h[8:19],
A1,A2,A3,A4,D2,D3,D4,D5,
1,2,3,4,4,3,2,1,
{4}8,8qq5[2:1],1/8,{8}4>8[4:1],4,
,,,7,8,1,2,2,
8/1h[2:1],{4},{8}7,5h[2:1],{4},{8}4,
2h[1:1],{4},{8}4,5,5,6,7,
{2}8qq2[2:1],{4}4,{8}3qq4[8:5],3,
5pp4[8:3],{4},,,{8}1/2h[8:19],
A8,A7,A6,A5,D8,D7,D6,D5,
8,7,6,5,5,6,7,8,
{4}1,1pp4[2:1],8/1,{8}5<1[16:3],5,
,,,2,3,4,5,6,
6/4,2,3,4,6/4,7,6/3,2/7,
{1}1V75[4:3]/8V24[4:3],
{8},,,,,,,,,,,,,,,6/4,
5,{16}5,4/6,,4,{8}5,2/4,{16}3,2/4,,5,6,7,
{8}2,{16}8,1,,7,{8}1-5[8:1],{4}5-2[8:1],{8}6,6,
{16}7,7,,1,{8}2/8,{16}7,6,{8}5,4/2,{16}5,3,6,4,
{8}5-1[8:1],4-2[16:1],5,4,8,{16}1,2,8,1,7,8,
6,5,,4,{8}5-8[8:1],3,2-5[8:1],2,1,{16}8,7,
6,5,,4,{8}5/3,{16}2,3,{8}4q5[4:1],6,{4}4/5,
{16}6,7,{8}8,{16}3,2,{8}1,2-5[8:1]/6-1[8:1],3/7,{4}2pp8[8:3]/6pp4[8:3],
{2},{8}6,3,5,4,
5<8[8:1],4,{4}3/5>2[8:1],7/5w1[8:1],5x,
{8}3<6[8:1],2,{4}3p1[4:1]*p8[4:1],{2}3x,
{8}7b/2b,{16}3,4,3,4,,5/3,,4/6,,6h[64:1],5h[64:1],6h[64:1],5h[64:1],6h[64:1],
7-4[8:1],3,7,2,,1-5[8:1],,5,,1,,{32}E5,E4,E3,E2,E1,E8,E7,E6,{16}Cfh[16:7]/7x>5[16:25],
{1},,{8}2,
2<5[2:1],,Cf,{2},{8}4/2,
{16}4,3,{8}5,6/4,2-5[8:1]/8-4[8:1],5/3,{4}2/8,
{8}6,6,7,7,8/1,1,1/2,2,
3/4,4/3,5/6,5/6,7/8,7/8,1/2,1/2,
5/3,7/1,6/4,2/8,8/1,6/3,7/2,5/4,
{4}1b-4[8:1]/8b-5[8:1],E8/E1/E2,2V47[16:3],2/5<2V86[2:1],
C/B4/B3,{8}4,3,2pp4[8:1],4>8[16:3],2,B7/B6,
{4},{8}6/5,4,{4}5/4-8[8:1],4/3,
{8}5/3,5,4/6,6,7v4[8:1],7,8>3[8:1],8,
{4}5-2[8:1]*-8[8:1],5x,7-4[8:1]/3-8[8:1],3/7,
{8}3/5,7/1,6/5,4h[4:1],,5,3/6,2/7,
1-5[8:1],8-6[12:1],1,8,4>8[4:1],4,8<4[4:1],8,
{4}4,{8}7,1,2/8,2,1<5[16:3],1,
2,2,3/4,{16}6,5,{4}7V52[16:3],7/4>7V13[2:1],
C/B6/B5,{8}5,6,7qq5[8:1],5<1[16:3],7,B2/B3,
{4},2/1-5[8:1],1x/8x-4[8:1],8x/7x,
{8}3x/5x,{16}2,4,{8}3x,{16}6,5,{8}7x,8,8x/1x,2,
4/3x,4,5/1x,6,7/4xh[8:1],8,8qq5[8:3],1,
2/8,2,3,3,4/6,5,4qq1[8:3],5,
6/4,6,7,7,8,1,2,3,
3/4,5,4/3,2,1/8,8,7,7,
5/6p3[4:1],5,{4}6x/5x,2h[24:5],{32}E2/E4,B1/B4,B8/B5,E8/E6,{8},{4}6-2[8:1],
{8}6/7-1[16:1],7,{4}7/5-3[16:1],5/8-4[8:1],
8/7-5[16:1],{8}1-3[16:1],1,{4}1/8w4[8:1],8x,
{8}6<1[8:1],6,{4}6x>3[8:1],6xw2[8:1],6x,
{8}3-1[16:1]*-5[16:1],3,{4}3xw7[8:1],3x,B7/B6/B2/B3,
3-7[8:1],{8}3/2-8[16:1],2,{4}2/4-6[16:1],4/1-5[8:1],
1/2-4[16:1],{8}8-6[16:1],8,{4}8/1w5[8:1],1x,
{8}7V52[4:1],7,2V47[4:1],2,7,7,8,1,
2/4,2/4,3/5,4/6,5/7,5/7,6/7,7/8,
{1}8/1b-5-2-7[4:9],
{4},,,E5,
E4,E3,{16}E2,{8},,,{48}E1/Ch[16:41],,E8,
,E7,{1},,,{4},,,{16},,,{48},{8}E6,
E5,{4}E4,{2},{8}E6,
E5,{4}E4,{2},{8}E3,
E2,E1,E8,{2},{8}E3,
E2,E1,E8,{4}6,6,
{8}7/E6,E5,{4}7/E4,6,6,
{8}7/E6,E5,{4}7/E4,6,6,
{8}2/8,7,2/6,5,3,3,4,5,
{1}5b/4b>5[2:1],
{16}2,2h[16:3],,8,{8}8h[16:3],{16}6,6h[4:1],,7,,7,5,6,4,5,
{8}3-5[12:1],3,6-8[12:1],6,{4}3>8[8:1],3,
{16}7,7h[16:3],,1,{8}1h[16:3],{16}3,3h[4:1],,2,,2,4,3,5,4,
{8}6-8[12:1],6,5-3[12:1],5,7,{16}1,8,2,1,3,4,
6v1[8:1],5,,5,{4}6,{8}4/3v8[8:1],{16}3,4,{4}3,
{8}7,7/8,{16}1,8,2,7,1,8,2,7,{8}1,8/2,
{16}2,3,{8}4,{16}7,6,{8}5,3-8[8:1]/7-4[8:1],2/6,{4}3qq5[8:3]/7qq1[8:3],
{2},{8}3,2,4,5,
2V47[4:1],2,{4}7V52[4:1],{2}2v7[8:1],
{8}6V83[4:1],6,{4}3V16[4:1],{2}6,
{8}2b/7b,{16}6,5,6,5,,4/6,,5/3,,3h[64:1],4h[64:1],3h[64:1],4h[64:1],3h[64:1],
2-5[8:1],6,2,7,,8-4[8:1],,4,,8,,{32}E5,E6,E7,E8,E1,E2,E3,E4,{16}Cfh[16:7]/2x<4[16:25],
{1},,{8}7,
7>4[2:1],,Cf,{2},{8}5/7,
{16}5,6,{8}4,3/5,7-4[8:1]/1-5[8:1],4/6,{4}7/1,
{8}3,3,2,2,1/8,8,8/7,7,
6/5,5/6,4/3,4/3,2/1,8/7,6/5,4/3,
1/7,3/5,2/8,6/4,4/5,2/7,3/6,1/8,
{4}5b-8[8:1]/4b-1[8:1],E4/E5/E6,7V52[6:1],7,
{1}1b>6qq2b[1:1],
{2},{8}8/1,8/1,7/2,7/2,
5/3,7/2,6/4,7/2,8/1,7/8,1/6,2/5,
{16}3h[8:1]/4h[8:1],{8},{16}4h[8:1]/5h[8:1],{8},5h[8:1]/6h[8:1],{16},7/6-3[48:5],{8},,,8b,
{16}7,8,{8}6,{16}2,1,{8}3,4,5,6,
7v4[8:1],8>3[8:1],7,8,5<1[4:1],5,1>5[4:1],1,
{4}5,{8}2,{16}8V24[4:1],1,{8}7,7,6,6,
7,6/5,5/4,{16}3,4,{4}2V47[16:3],2/5<2V86[2:1],
C/B3/B4,{8}4,3,2pp4[8:1],4>8[16:3],2,B7/B6,
{4},7/8-4[8:1],8x/1x-5[8:1],1x/2x,
{8}6x/4x,{16}7,5,{8}6x,{16}3,4,{8}2x,1,1x/8x,7,
5/6x,5,4/7x,3,2/5xh[8:1],1,1pp4[8:3],8,
{16}1/8h[8:1],{8},{16}7h[8:1],{8},6,5/3,4,5pp8[8:3],4,
{16}5/4h[8:1],{8},{16}3h[8:1],{8},2,1/7,8,7,6,
6/5,4,5/6,7,8/1,1/8,2,3,
{4}3pp6[0.8889##0.8889],7pp2[2:1]*pp2[2:1],{2}7bx/3bx,
{4},{8}1/5,1/5,8/4,8/4,7/3,7/3,
6/2,6/2,5/3,{16}4,5,{8}4,3,2/6,2,
{4}3/7V52[16:3],{8}7/3<8[4:1],3,{4}8>4[16:3],5-1[8:1],
5/6-8[16:1],{8}4-2[16:1],4,{4}1w5[8:1],1x,
{8}7V52[4:1],7,{4}2V47[4:1],{2}7v2[8:1],
{8}4-2[16:1]*-6[16:1],4,{4}4xw8[8:1],4x,B2/B3/E3/B7/B6/E7,
6/2V47[16:3],{8}2/6>1[4:1],6,{4}1<5[16:3],4-8[8:1],
4/3-1[16:1],{8}5-7[16:1],5,{4}8w4[12:1],8x,
{8}3V16[4:1],3,6V83[4:1],6,5,5,4,4,
3/2,3/2,1/2,1/2,8/7,6/5,4/3,8/1,
{1}3b-7b[4:5]/6b-2[4:5],
{4},,,E8,
E7,E6,{24}E5,{12},,,,,{24}B6,
Ch[2:5],B2,{1},,,{4},,,{6},{8}E7,
E6,E5,E4,E3,{4},{8}6h[8:3]/5h[4:3],
{1},{8}E3,
E4,E5,E6,E7,{4},{8}3h[8:3]/4h[4:3],
E
