&title=無人区 -Vacuum Track#ADD8E6-
&artist=NoKANY
&first=0
&des_1=ASZ
&des_2=ASZ
&des_3=ASZ
&des_4=ASZ
&des_5=ASZ
&lv_5=15
&des_6=ASZ
&des_7=ASZ
&des=ASZ
&inote_5=(203){4},,,,
{8}3,4,3,4h[16:10],{16}3,,,2,,,1,,8<5[2:1],,,,{8},,1x,,3x,,
{8}3,4,2,4,1,4,8,4,7x>5[2:1],,,,6b,,,,
{8}7,6,7,8,{16}7>1[16:3],,,1>3[16:3],,,3<5[16:2],,5>6[2:1],,,,{8},,5x,,3x,,
{8}3,4,2,4,1,4,8,4,7b>5[2:1],,,3b,,,7b,,
{8}6,5,6,5h[16:10],{16}6,,,7,,,8,,1>4[2:1],,,,{8},,8x,,6x,,
{8}6,5,7,5,8,5,1,5,2x<4[2:1],,,,3b,,,,
{8}2,3,2,1,{16}2<8[16:3],,,8<6[16:3],,,6>4[16:2],,4<3[2:1],,,,{8},,4x,,6x,,
{8}6,5,7,5,8,5,1,{16}5p8[8:1],,
{16}2b,,,8b,,,5bq1[8:1],,7b,,,2b,,,4b,,,
{16}1,8,1,,1,8,1,,1,7,1,,1,7,1,,
1,6,1,,1,4,1,,1,6,1,,3,4,2,,
{8}1-5[2:1],,5b,6b,4b,7b,1b,,
{24}2/4,1,8,7,6,5,3,2,1,8,7,6,5h[48:5],
{16},1,4h[8:1],,8,3h,,
{8}7-1[8:1]/Cf,7,7,C,,,C/3,,
{16}3h,2h,,,5,6,,,2h,1h,8h,,6,7,8,,
{24}1h,2h,3h,7,6,5,8h,1h,2h,8,7,6,{8}8bh/5x,8b/3xh,8bh/5x>1[4:1],,
{4}1<5[4:1],5v2[4:1]/5?q1[4:1],,{8}A1/A2,7b/8b,
{24}1/2x-8[8:1],3x,4x,,,,{8}2/4-6[8:1],,4/1,3,,1/2,
{24}8/7x-1[8:1],6x,5x,,,,{8}7/5-3[8:1],,5/8,6,,7/8,
{16}1/2,,8,7,8,7,7,7,7-3[8:1],7,7,,{4}8/7,
{24}7/4,8,1,2,3,4,6,7,8,1,2,3,4h[48:5],
{16},1,5h[8:1],,2,6h,,
{8}Cf/3b-5[8:1],,1v6[8:1],,2-5[8:1],2,3,,
Cf/6b-4[8:1],,8v3[8:1],,7-4[8:1]/Cf,7,6,,
{4}2b/E8f,8b/B2f,3b/B6f,5bp1[4:3]/5?q1[4:3]/E4f,{8}B5,,,C,,,B1,,
{24}3-7[1:1]/7,4,5,6,7,8,{24}1,5,1,5,1,5,{16}1,5,1,5,1,5,1,5,
{8}1,1,1-5[8:1],1-4[8:1],1-6[8:1],1,1,,
{24}2/5h[4:1],1,8,7,6,7,8,1-5[8:1],2,3,4,,
{8}1/5,4,4,4,5/7,6,2,6,6/5,,8-4[8:1],,
{8}D5/A5/A4/E5h[4:1]/D6/D4/B5/B4,,,,1h[8:3],4,6,8h[8:5],{32}6,5,4,3,{8},,,
{16}1,1,1,1,1,1,1,,
{16}1x,2,8x,7,2x,3,7x,6,{8}5/1b,6,7,8,4b/1,3,2,1b/4,2b/5,6,5b/7,8,
{4}Cf/2h[2:1],,{8}3,3,2,3,{4}7/C,6v1[8:1],D1/A1/A8/E1h[4:1]/D2/D8/B1/B8,,
{12}3/6,2,1,{24}3,2,1,8,7,6,{4}1-5[8:1],1,
{8}4/8,3,2,1/4,5-1[8:1]/2,6,7>7b[4:1]/5,,
{4},,{8}7,5/6,8h[8:5]/3,,7,7>4[2:1],7,7,
{16}6b,,,8b,,,2b,,
{4}1/8,2/7,3/6,4/5,{8}3/6,1/8,4/5,2/7,
{16}8,1,6,3,{24}8h,1h,8h,1h,8h,1xh,
{4}2b/7b-3[8:1],8bh[8:5],
{16}2b,,,4b,,,6b,,
{4}2b-6[8:1]/7b,1bh[8:5],
{16}7b,,,5b,,,3b,,
{24}2b/7b-3[8:1],1,8,,,,6b,5,4h[48:26],,,,
{16}2b,,,8b,,,5bh[2:1],,7b,,,1b,,,4b,,
{32}2b,3,4,,,,8b,7,6,,,,1b,2,3,,
{4}7b/Cf,{32}2b/A4f,B4,C,B8,A8,,{16},
{32}3b,E4,A5,,,,2b,C,A6,,,,1b,E1,A7,,
{4}3b/Cf,{32}7b/A5f,B5,C,B1,A1,,{16},
{32}6b,E6,A4,,,,7b,C,A3,,,,8b,E1,A2,,
{4}4b/5b,4b/5b,{16}1b/8b,,,2b/7b,,,3b/6b,,
{8}6bx-1b[12:1]/7bx,2bx-5b[12:1]/3bx,6b,2b,7b/Cf,,,,
{2}Ch[8:21]/E2h[8:6],,E4h[8:7],,E6h[8:3],E8h[8:3],Cfh[16:14]/E3fh[16:8]/E7fh[16:11]/B3h[8:1]/B6h[4:1],,
{16}2/8b,,3,4,3,,2,6,
{16}7/1b,,6,5,6,,7,3,
{16}2b-6[8:1],1,2,,4b-8[8:1],3,4,,2b-6[8:1],2,1,,4b-8[8:1],4,3,,
{8}2,3,4,5/6,5/7,5/8,5/1,5/2z6b[8:6],5b/3b>6[8:5],,{4},,,
{16}8/4-7[8:1],,6,5,4,,8,,1/5-2[8:1],,3,4,5,,1,,
{8}8-4[8:1]/7,5V36[4:1]/6,8v6[8:1]/7,5,8-2[8:1],,
{16}3,4,5,,{8}1/4,3,2/5,1,5/8,6,7/4,8,1b-3[8:1]/5b-7[8:1],3b/7b,1b/5b,,
6xh/7x,5xh/6x,4xh/5x-2[8:1],{16}4x/3xh,2h,
{8}1h/5-1[8:1],8h,5-8[8:1]/3h,4h,5-1[8:1],1,5-3[8:1]/7,6,{4}5x-7[8:1]/3xh,5xw1[8:1]/7x,,
{16}5,4,5,4,{8}8/2,5,1/6,4,7/C,,C/4,1,
{32}3b/B7f,4,5,,,,3b/B7f,4,5,,,,3b/B7f,4,5,,
6b/B2f,5,4,,,,6b/B2f,5,4,,,,6b/B2f,5,4,,
{8}Cf,7,2/4,8,7/5,1,3,8/7,
{8}4-8[8:1]/3,1V72[4:1]/2,4v2[8:1]/3,1,4-6[8:1],,
{16}7,8,1,,
{8}8/5,2,6/1,5,1/4,7,3/8,4,8b-3[8:1]/5,2b,{32}6b,5,4,,,,,,
{8}1xh/2x,8x/7xh,1x-6[8:1]/2bx,8x/7bxh,
{8}6h/1-5[8:1],5h,1-4[8:1]/7h,8h,1-5[8:1],5,1-7[8:1]/3,2,{4}1x-3[8:1]/7xh,1xw5[8:1]/3x,,
{16}1,8,1,8,{8}2/7,8/5,3/6,1/4,2/7,,4/5,1/8,
{16}5bh,4,6h,,5b,7h,3,,5bh,2,8h,,5b,7h,1,,
{8}Cf/2,2,2,2,2,2,4,4,4,4,4,4,1,1,7,7,{16}6xh/4,,4,7xh,4,,8xh/4,,{16}8,,8,,8,5xh,8,,3xh/8,,{8}1xh/8,1/7,1,1/3,1,1/6,1,
{4}1/4-1[8:1]/4?-2[8:1],4,4/7-4[8:1]/7?-5[8:1],7,7/2-8[8:1]/2?-7[8:1],2,2/5-2[8:1]/5?-3[8:1],5<7>1>3<5[4:3],
{4}B3,B1,B7,B5,{16}E3/6b,,3,4,3b,,E7,5,{16}6b,,4,C,4b,5,4,,
{8}7/C,7,7,7,7,7,5,5,5,5,5,5,1,1,2,2,{16}4bh/3,,3,6bh,3,,3/8bh,,8,,8,,1,,1,,
{4}3<6[8:1]/3?<6[8:1],6,7>2b[8:1],{8}2,3,
{8}4/6,4/6,4/6,4/6,4/6,4/6,4/6,
5,7/1,7/1,7/1,7/1,7/1>4[8:1],7/1,7/1,8,
{8}1/5b,3,1,8/4b,6,8,1b-4<5V71V35b[4:3]/5b<5[4:3],3,1b/5b,,{4},,,
{2}Cf,,,,E4h[1:1],,A5,,
{2}E6h[1:1],,{4}A4,E3,,E1h[4:5],E3,,C,,E7,,,,
{2}6h[2:3],5,4,{4}3h[4:1],4,4h[1:1]/3,,,,E5,,,C,
{8}3h[1:1],4,5,6,1,8,7,6,{4}6h[4:1],,,5h[4:3]/6,
{4}7h[4:7],,,1,,2,,(29){28}3<3[16:1],
(203)
{2}3h[1:1]/7h[1:2],,{8},3,3,4,3h,,,,
{8},,{16}3h[8:1]/7h[8:4],,,3h[8:1],,,3h[8:1],,{8},
(29){56}7-3[32:1],
(203){8}7,7h[16:9],
{8}3,3,3h[16:3],,{16},4x/6x,,,5,5,5h[4:2],
E
