&title=Butterfly
&artist=Smile. DK
&first=0
&des=NaOH
&clock_count=4
&lv_5=13
&inote_5=(134.88){4},,,,
,,,,,,,,
,,,,,,,,,,,,
3h[4:1]/4pp8[4:2],,3,2,
7h[4:1]/2qq5[4:2],,7,6,
3h[4:1]/6qq8[4:2],,2,1,
2V84[4:2]/7V15[4:2],,,,
{4}
5-7[12:1],45,5-3[12:1],56,
5-8[8:1],35,5-2[8:1],57,
4<7[8:1],24,5>2[8:1],58,
1pp4[4:2],5,6,7b,
{8}
8V64[4:1],,4,3,2-6[8:1],,12,8,
7-4[8:1],,37,2,1-3[8:1]*-5[8:1],,1,,
2pp5[4:2]/4,,6,7,8<5[8:1],,8,,
24,3,75,6,5-1[8:1]/6-4[12:1],,,,
6-1[8:1],,1,2,3-5[8:1]*p5[8:1],,3,,
7-3[8:1],,8,1,2-7[8:1]/6-3[8:1],,26,,
2v5[8:1]/8v5[8:1],,28,,3-7[8:1]/6-4[8:1],,36,,
2,2,8,8,4-8[8:1]/7-1[12:1],,4b/7b,,
24,3,14,2,1-5[8:1]/5,,1<6[8:1]/7,8,1>4[8:1]/3,2,1V73[4:1]/7,8,1b/3bV51[4:1],,,,
2h[4:1],,3>8[8:1],4,5h[4:1],,8>3[8:1],1,7<4[8:1],6,1V73[4:1],2,3-5[8:1],,,,
2,13,2,13,8-4[8:1]/4,,8>3[8:1]/2,1,8<5[8:1]/6,7,8V26[4:1]/2,1,8b/6bV48[4:1],,,,
7h[4:1],,6<1[8:1],5,4h[4:1],,1<6[8:1],8,2>5[8:1],3,8V26[4:1],7,6-4[8:1],,,,
3,2h[4:1],,1<4[8:3],4,3,2,,2,1h[4:1],,8<3[8:3],3,2,1,,
2,1h[4:1],,3<8[8:3],8,1,2,,2,24,3,35,6v1[8:1]/4v1[8:1],,46,,
6,7h[4:1],,8>5[8:3],5,6,7,,7,8h[4:1],,1>6[8:3],6,7,8,,
7,8h[4:1],,6>1[8:3],1,8,7,,7,75,6,64,3v8[8:1]/5v8[8:1],,5b/3b,,
{4}7qq4[4:6]/2h[4:7],,,,,,,,6h[4:3]/3qq8[4:2],,,,1h[4:3]/6qq3[4:2],,,,
1qq4[4:6]/5h[4:7],,,,,,,,1V38[4:2]/5V74[4:2],,,,1pp4[4:2]/5pp8[4:2],,,,
{8}25,34,25,34,1>4[8:1]/5,,7-4[8:1]/1,8,7-1[12:1]/1,2,7-3[8:1]/3,4,
7bV15[8:1]/3bV51[8:1],,,,
3h[4:1]/7,,2>5[8:1],1,8h[4:1],,5-2[8:1],4,8-5[8:1],7,3,2p3[4:1],1p4[8:1],,,,
56,47,56,47,8<5[8:1]/3,,2-5[8:1]/8,1,2-8[12:1]/8,7,2-6[8:1]/6,5,
2bV84[8:1]/6bV48[8:1],,,,
6h[4:1]/2,,7<4[8:1],8,1h[4:1],,4-7[8:1],5,1-4[8:1],2,6,7q6[4:1],8q5[8:1],,,,
12,38,12,38,4-1[8:1]/7,,48,7,26,35,8-3[8:1]*-5[8:1],5V74[4:1]/3V14[4:1],,,,,
2h[8:1]/6h[8:1],,37,48,1h[8:1]/5h[8:1],,48,37,56,56,4q5[4:1]/3>5[4:1],34,,,,,
87,61,87,61,5-8[8:1]/2,,25,3,46,37,5-2[8:1]*-8[8:1],8V61[4:1]/2V41[4:1],,,,,
7h[8:1]/3h[8:1],,62,51,8h[8:1]/4h[8:1],,51,62,43,25,5p4[4:1]/6<4[4:1],47,,,,,
37,2h[4:1]/6,,1p8[8:3],2,3,4,,5,4h[4:1],,7p6[8:3],3,2,1,,
2,3h[4:1],,4q6[8:3],3,2,1,,1,1,28,28,3-8[8:1]/7-4[8:1],,3b/7b,,
62,7h[4:1]/3,,8q1[8:3],7,6,5,,4,5h[4:1],,2q3[8:3],6,7,8,,
7,6h[4:1],,5p3[8:3],6,7,8,,8,8,71,71,6v1[8:1]/2v5[8:1],,6b/2b,,
7h[4:2],,5,5,5h[4:1],,6,6,4,5,3,4,2-4[12:1],,,,
2h[4:2],,5,6,7h[4:1],,5,5,6,7,3,2,1-5[8:1]/8,,,,
2h[8:1],8h[8:1],2h[8:1],8h[8:1],1h[4:1],,7,7,3,3,6,5,4-2[12:1],,,,
6h[4:1],,5,4,3h[4:1],,4,5,6,6,3,3,2>5[8:1]/6,,,,
