&title=Crush the Dystopia
&artist=MintJam vs Masahiro "Godspeed" Aoki
&first=-0.1
&lv_5=14+
&des=THAC vs HandDoodle
&inote_5=
(205){4},,,,E6,
{2},{4}E4,
{2},B5,
{4},B4,{2},{4}B6,
{2},{4}B3,
{2},C,
{4},5/4,{2},{4}6qq4pp6p2pp4q8qq6b[4:15],
{2},{4}B7,
{2},B8,
{4},B1,{2},{4}B2,
{2},{4}C,
{2},{16}7,5,6,5,{8}6,{16}2,4,
3,4,{8}3,{16}8-4[8:1],1,7,2,{4}8,2-5[8:1]/6-1[8:1],
{64}2/6,Cf,{4},{16},{32},{8}7x/3x,,8,{4}8-6[8:1],
5-1[8:1],8,7/2,{8}1,1/7,
,5,{4}3/5-7[8:1],2-6[8:1],8,
7/4,{8}2,2/1,,7,{4}8/7-3[8:1],
4-8[8:1],6,1/5,{8}7/3q5[2:1],3/7,
,6,{4},7-2[8:1],7/2,
{8}3,4,5,6,,7/4,,2/5,
{4}2/5-8[8:1],3,{8}4,5,6,7,
,8/1,,1/2,{4}2/1-4[8:1],3,
{8}6,5,4,3,,7/2,,8/1,
{4}8/1-5[8:1],7,{8}6,6h[4:1],4,4h[4:1],
5,5h[4:1],3,3h[8:1],6h[8:1],5h[8:1],4h[8:1],3h[8:1],
1b,{4},{8}2qq5[8:5],{2},{4}B8/B7,
B6/B5,{8}7pp4[4:3],{4},{8}2h[8:5],
{4},,,3/5,
2/6-1[8:1],{8}3,3-7[8:1],,5,{4}5-2[8:1],
2,8/1,6q4q2>6[1:1],2h[4:3],
{1},{4}7/3,
6h[4:1],{6}5h[6:1],4h[6:1],3h[6:1],
{4}8h[4:1],1,{8}7/2,{4},{8}3/6-3-5[4:1],
{2},{4}B5/B4,C,
{8}7<5[8:1],{4},{8}4>2[8:1],{4},1<7[8:1],
{8},6>4[8:1],{4},{2}3>4[1:1]*q4[1:1],
{1},{8}7/3,
{16}6,5,{8}6,2,6h[8:1],5h[8:1],4h[8:1],{16}3,4,
{8}2-5[8:1],2,6-1[8:1],6,3>7[8:3],{4},{8}4,
4,5,{4}5h[8:3],{16}6,7,8,1,2/5,6,7,8,
{8}5/1-5[8:3],{4},{8}3h[8:3],{2},{4}6/4,
{8}3h[8:1],5h[8:1],{16}2,4,2,4,3,5,3,5,
4,6,4,6,5,7,5,7,5,4,3,2,1/5,6/2,7/3,8/4,
{4}1/5q3<5[8:3],{2},{4}8h[2:1],
{8},1,{4}1,{8}7-4[8:1],1,7,2-5[8:1],
8,2,7,1,8,{16}2,6,{8}2,1,
{4}2/8-4[8:1],{8}5,5h[4:1],,6,{12}4,3,2,
{4}1h[4:1],{8}8,{16}2,6,3,5,3,5,4,6,4,6,
2,8,2,8,1,7,1,7,1,2,3,4,5/1,2,3,4,
{4}5/1-5-1[4:13],6h[8:1],6h[8:1],6h[8:1],
7h[8:1],7h[8:1],7h[8:1],7h[8:1],
8h[8:1],8h[8:1],8h[8:1],8h[8:1],
7h[8:1],7h[8:1],7h[8:1],7h[8:1],
4/6h[8:1],5/6h[8:1],6h[8:1]/B8/B7,5/6h[8:1],
5/3h[8:1],4/3h[8:1],3h[8:1]/B1/B2,4/3h[8:1],
5/6h[8:1],6h[8:1],5/7h[8:1],7h[8:1],
4/3h[8:1],3h[8:1],4/2h[8:1],2h[8:1],
{8}7/5,6,6,2/4,3,3,{4}1/5,
{16}1,5,2,6,3,7,4,8,{2}5w1[8:1],
{8}7b/3b,8/1,{16}7,2,{8}8,3/7,{16}8,2,7,2,{8}8,
7/3,8/1,{16}7,2,{8}8,3/7,{16}8,2,7,2,{8}8,
6/2,1/8,{16}2,7,{8}1,6/2,{16}1,7,2,7,{8}1,
2/6,1/8,{16}2,7,{8}1,6/2,{16}1,7,2,7,{8}1,
7-3[8:1],7,8-4[8:1],8,1-5[8:1],1,2-6[8:1],2,
3-7[8:1],3,4-8[8:1],4,5,5,4/6,4/6,
7/3,6,5/4,3,2/1,8,7/3,3/7,
{16}1,8,2,7,4,5,3,6,1-5[8:1],8,2,7,{4}1b,
{8}2b/6b,1/8,{16}3,7,{8}1,6/2,{16}1,7,3,7,{8}1,
2/6,1/8,{16}3,7,{8}1,6/2,{16}1,7,3,7,{8}1,
3/7,8/1,{16}6,2,{8}8,3/7,{16}8,2,6,2,{8}8,
7/3,8/1,{16}6,2,{8}8,3/7,{16}8,2,6,2,{8}8,
1-5[8:1],1,6-1[8:1],6,3-7[8:1],3,8-4[8:1],8,
{4}2>5[8:1],{8}2/6,7w3[8:1],,{48}B7,B8/B6,Cf/B1/B5,B2/B4,{24}B3,{4},{8}8-4[8:1],
8,3-8[8:1],3,6-2[8:1],6,1-5[8:1],1,
{4}7<4[8:1],{8}7/3,2w6[8:1],,{48}B2,B1/B3,Cf/B8/B4,B7/B5,{24}B6,{4},{8}1bx/8bx,
{4},{8}6h[8:3]/3h[8:3],{2},{8}6,
5,7,3,4,2,{4}1/8,
{8}7h[8:1],6h[8:1],5h[8:1],4h[8:1],3h[8:1],2h[8:1],{12}8,7,6,
5/4,3,2,1/8,{4},{24},{8}7/4,6-1[8:1],6,
5,4,{4}3h[4:1],{8}4h[8:1],3h[8:1],5h[8:1],4h[8:1],
{16}6,5,6,5,7,5,7,5,8,5,8,5,8,4,8,4,
{2}7w3[8:1],{6}5bx/1bx,7bx/3bx,6bx/2bx,
{8}8b/4b,{4},{8}6h[8:3]/3h[8:3],{2},{8}5,
5,{16}6,4,5,3,7,4,7,4,5,2,5,2,
6,4,5,3,7,3,6,2,{8}6h[8:1],4h[8:1],5h[8:1],3h[8:1],
6h[8:1],4h[8:1],{4}5b,{8},1/8,{4},{8}7-3[8:1],
{4},{8}2-6[8:1],{4},5h[4:1],
{8},4h[4:1]/6h[4:1],{4},{8}3h[4:1]/7h[4:1],{4},{8}7/3,
2/8,2/8,{16}1,1,1,1,2,2,2,2,3,3,3,3,
{1}4b-8>8[4:11],
,,,{4}5,
5,5,5,
4,4,4,4,
{16}7,5,6,5,{8}7,{16}2,4,3,4,{8}2,{16}8,1,{8}8,
{16}2,6,2,6,3,7,3,7,{32}4,5,6,7,8,1,2,3,{4}4b/Cf,
{8}7b/3b,8/1,{16}5,2,{8}8,3/7,{16}8,2,5,2,{8}8,
7/3,8/1,{16}5,2,{8}8,3/7,{16}8,2,5,2,{8}8,
6/2,1/8,{16}4,7,{8}1,6/2,{16}1,7,4,7,{8}1,
2/6,1/8,{16}4,7,{8}1,6/2,{16}1,7,4,7,{8}1,
5-1[8:1],5,2-6[8:1],2,8-4[8:1],8,2-5[8:1],1-6[8:1],
2,1,4,4h[4:1],{16},,{48},3bx/5bx,2bx/6bx,1bx/7bx,{24}8bx,{4},{8}4-8[8:1],
4,7-3[8:1],7,1-5[8:1],1,7-4[8:1],8-3[8:1],
7,8,5,5h[4:1],{16},,{48},6bx/4bx,7bx/3bx,8bx/2bx,{24}1bx,{4},{1}Cf,
{8}6/5,7,7,8/1,2,2,4/3,5/2,
6h[16:1]/1h[16:1],8h[16:1]/3h[16:1],4h[16:1]/5h[16:1],2h[4:1]/7h[4:1],{4},{8}3/6,6/3,
1/2,3/8,7/8,6/1,8/3,6/1,{4}7b/2b,
{12}3,4,2,6,5,7,3,4,1,6,5,8,
{16}2,1,3,8,4,7,5,6,3,4,2,5,1,6,8,7,
8,1,2,3/4,5,6,1,2,3,4/5,6,7,1,2,3,4,
{8}6/5h[4:1],7,7,3/4h[4:1],2,2,{4}1w5b[8:1],
{64}1b<1[2:1]*>1[2:1],Cf,{4},,,{16},,,{32},{8}7h[8:1],
5h[8:1],6h[8:1],4h[8:1],5h[8:1],3h[8:1],4h[8:1],2h[8:1],
{16}7,5,6,5,7,4,5,4,6,3,4,3,5,3,4,3,
{32}5h[32:1],6h[32:1],7h[32:1],8h[32:1],1h[32:1],2h[32:1],3h[32:1],4h[32:1],{4}5h[2:1],{2}1-5[8:1],
{8}3/7,3,6/2,6,4/7,4,5/2,5,
6/1,{16}8,7,{8}8,8/3,{16}2,1,{8}2,{4}1/7,
{8}6/5,7,4/3,2,5/7,8,4/2,1,
8/6,{16}7,7,{8}7,{16}3/1,2,2,2,{8},{4}1/8,
{16}2b,3,8b/4,7,1b/6,2,7b/3,6,2b/5,3,8b/4,7,1b/6,2,7b/3,6,
5/1bxh[8:3],{8},{32}2x,3x,4x,5x,6x,7x,{8}8bxh[8:3],{16},{32}7x,6x,5x,4x,3x,2x,{4}1bx,
{8}7bx/2bx,{4},{8}5bh[8:9]/3bh[8:9],{1},{4},C,
{8}E1f/E8/E2,{4},{8}3h[4:1]/6h[4:1],{4},{24}8/1,2,3,4/5,{12},{24}1/8,
7,6,4/5,{12},{24}1/8,2,3,4/5,{12},{8}7b/8b,3b/4b,1b/2b,5b-8>5b[8:15]/6b-3-7[8:15],
