&title=祝你今年金拱门
&artist=蔡国庆
&first=0.8
&des_5=HaPpy New Year~
&lv_5=13
&des=HaPpy New Year~
&clock_count=4
&inote_5=(130)
{1},,
{16},7bx>8-5q4b[4:5],
,,,,,,,,,,,,,,,,,,,,,,,,,,,,,,2bh[4:1]/4<8b[2:1],,,,,,,,
{16},,2,3,4,,,,
{4}4>8b[2:1]/7bh[4:1],,
{8},6,5w1b[8:1],,5-8-3[4:1]`Cf,,,,2v5[8:1]*p6[8:1],,2>4b[8:1],,2/A6f/E7h[4:1]/B6h[4:1]/E6h[4:1],,,,Cf/B7/B8/E4h[4:1]/B3h[4:1]/B4h[4:1],,,,
{16}18,,2-5b[8:1],2,5V38b[4:1],,2,,A5f,,A3f,,A8f,,,,28,,7-4b[8:1],7,4V62b[4:1],,7,,A4f,,A6f,,A2f,,,,6<1[8:1]/5>2[8:1],,,,A6/D6f/A5,,,,3>8[8:1]/4<7[8:1],,,,A3/D4f/A4,,,,45,,45,,,,6/5qq3<4[4:1]*pp7<6[4:1],,34,,,,,,,,2h[2:1],,,4,E5/B4,,E6/B6,,E7/A7,,,,6,,6,,4qq2[4:1]*pp6[4:1],,,4,4,,C,,A2/A6,,,,E7/B6,,,,1-7<6-4b[4:1]/8-2>3-5b[4:1],,,18,18,,D7/D3,,A4/A5/D5,,,,6,,6,,4,,,4,5-1>3[4:1]*-1<7[4:1],,5,,5,,,,,,,,6h[2:1],,,2,
{64}B1f,B2,B3,D4,,,,,B1f,B2,B3,D4,,,,,B1f,B2,B3,D4,,,,,,,,,,,,4-2b[8:1]/6-8b[8:1],,,,,,,,,
{8}46,46,
{16},,A2/E2/E1/A8,,,,3>1[8:1]/5<7[8:1],,,,35,,,,Ch[16:3]/B2h[16:3]/B3h[8:3]/E3h[8:3]/B7h[2:1]/B6h[4:1]/E7h[4:1],,,,,,,,,,,,
{8}18,18,27,27,36,36,4w8b[8:1]/5w1b[8:1],,,,3>2v8V64b[8:3]/7>8v2V46b[8:3],
{16},37,37,,C,,A4/A6,,,,3,,2,,
{8}2-6[16:1]/6V42b[4:1],,2>7[4:1]/6,,,,,,6/5h[4:1],
{16},7,7,,8,,8,,,,3-1<8-6[4:1],,3,,6z2[4:1],,6,,5<4[4:1],,5,,5,,,,,,,,3-1-3-1b[2:1],,,3,A6f/E7hf[8:1]/E6hf[4:1]/B6hf[2:1],,,,,,,,,,,,6>3[4:1],,,,3-6[4:1],,,,E2,,,,E8,,,,7p6[4:1],,,7,2q3[4:1],,2,,2,,,,7,,83,,14,,25,,1/3V14[4:1]*pp4[4:1],,3/8,,37,,,,
{32}A4,E4,B3,B2,B1,B8,B7,B6,
{8}E6f,
{16},4x,6x-8v1-3b[4:1],,
{8}5x,A6f,Cf,A3f,,6hb[4:1],
{16},3,5p1<6[4:1],,4,,A5f,,A1f,,A6f,,,,2h[16:3],,,4,3h[8:1],,B6/E6f,,6h[16:3],,,5,7h[8:1],,B1/E2f,,3V15[65#8:1]/6V84[65#8:1],,,,B3h[16:1]/B6h[8:1]/B2h[16:3]/B7h[4:1],,,,,,,,,,,,
{8}3b,
{16},5x,3x-1v8-6b[4:1],,
{8}4x,A3f,Cf,A6f,,3hb[4:1],
{16},5,4p8-2>3[4:1],,4,,A4f,,A8f,,A3f,,,,7h[16:3],,,5,6h[8:1],,B3/E4f,,3h[16:3],,,4,2h[8:1],,B8/E8f,,6V84[65#8:1]/3V15[65#8:1],,D4h[8:1]/D6h[4:1]/A3h[8:3]/A6h[8:3],,,,,,,,,,,,,,
{8}6b,
{16},4x,6x-8v1-3b[4:1],,
{8}5x,A6f,Cf,A3f,,6hb[4:1],
{16},3,5-1-3[4:1],,4,,A5f,,A1f,,A3f,,,,2h[16:3],,,5,2,,7v2v4[4:1]/1v6v4[4:1],,17,,A1/A7,,C,,A4,,5-2[8:1]*-7[8:1],,,,5b,,,,1v4[8:1]*v6[8:1],,,,1b,,,,
{8}3b,
{16},5x,3x-1v8-6b[4:1],,
{8}4x,A3f,Cf,A6f,,6hb[4:1],
{16},4,5-1-7[4:1],,5,,A5f,,A1f,,A7f,,,,
{32}4>1b[16:1],,,,,,,,8x,7x,6x,5x,,,,,5<8b[16:1],,,,,,,,1x,2x,3x,4x,,,,,37,,,,37,,,,26,,,,26,,,,15,,,,84,,,,
{64}1x,2x,3x,4x,5x,6x,7x,8x,1x,,,,,,,,
{32}5>2b[16:1]/6<1b[16:1],,,,,,,,E7/E5,E8/E4,E1/E3,,,,,,4<7b[16:1]/3>8b[16:1],,,,,,,,E3/E5,E2/E6,E1/E7,,,,,,8b,,,,7bs3[4:7],,,,,,,,,,,,,,,,,,,,,,,,,,,,,,,,,,,,,,,,8b,,8b,,8b,,,,8b,,,,8b,,,,8b,,,,
{64}A7/E7/B7,B6/C/B5,B1/B2/B3,E3/A3,,,,,,,,,,,,,,,,,,,,,,,,,,,,,,,,,,,,,,,,,,,,,5-8b[4:3],,,,,,,,,,,,,,,,,,,,,,,,,,,,,,,,,,,,,,,,,,,,,,,,,,,,,,,,,,,,,,,
{16}
A8f,E1f,A7f,,,E7f,B7f,,,,Cf,,,E6f,,,,E5f,
E
