&title=I'm a mess
&artist=MY FIRST STORY
&first=0.01
&des_5=Ragna
&lv_5=13
&des_7=Ragna
&lv_7=覚
&des=Ragna
&wholebpm=130
&demo_seek=62.5
&demo_len=33.1
&inote_5=(130){2},,
3h[2:1],4h[2:1],5p4[2:1],,6h[2:1],5h[2:1],4>5[2:1],,{4}
4h[4:1]/5,5,7h[4:1]/5,5,2h[4:1]/5,5,8h[4:1]/5,5,
3h[4:1]/4,4,7h[4:1]/5,5,1h[4:1]/8,8,{48}
2b/7b,36,45,,,,,,,,,,2b/7b,36,45,,,,,,,,,,{16}27,,1,8,,4,5,,{4}
3b-5[8:1]/6h[4:1],3,7-4[8:1]/3h[4:1],7,
2-4[8:1]/6h[4:3],2-8[8:1],2-6[8:1],2,
73,{12}5,4,5,{4}3-8[8:1]/6-1[8:1],36,{16}
27,,3,4,,6,5,,4,5,3,6,2,7,1,,{4}
2-5[8:1]/6h[4:1],2,7-3[8:1]/2h[4:1],7,
1^4[8:1]/5h[4:3],1^6[8:1],1-5[8:1],1,
37,{12}1,8,1,{4}2-5[8:1]/7-4[8:1],27,{16}
36,,2,7,1,8,1,,27,,3,4,,6,5,,{4}
5/4-1[2:1],5,5,5,1s5[2:1]/6,6,6,6,
7/5V31[2:1],7,7,7,1-5[4:1]/8,5<4[8:3],7h[8:3],,{8}
6,5,74,6,3,4,25,3,6,5,74,6,3,4,25,3,{4}
6^1[8:1]/4,3p7[8:1],5q2[8:1],3>6[4:1],5h[2:1],,{16}4,,6,5,,3,4,,
2h[8:1]/5h[8:1],,,3h[8:1]/6h[8:1],,,7h[8:3]/4qq4[16:3],,,,,,,,,,
6h[8:1]/5h[8:1],,,5h[8:1]/4h[8:1],,,3h[8:3]/4qq4[16:3],,,,,,,,,,
1pp6[8:3],,,,6,,6V42[16:3],,,,8h[4:1],,,,,,
8qq3[8:3],,,,3,,3V57[16:3],,,,1h[4:1],,,,,,
2h[8:1]/8,,,2h[8:1]/4qq5[16:5],,,4/6-4[8:1],,,,,,,,36,,
7h[8:1]/1,,,7h[8:1]/5pp4[16:5],,,5/3-5[8:1],,,,,,,,36,,
28,,2,,71,,7,,38,,3,,61,,6,,
4,5,3,7,1,8,2,4,3,7,5,6,1s5[2:1]*s5[2:1],8,3,6,{8}
,,,,,,2/8q4[8:1],17,
8b/6,,3/1p5[8:1],28,1b/7,,2/8-3[8:1],17,
8-5[8:1]/6,7,8-4[8:1]/2,1,86,,3/5-8[8:1],46,
7h[2:1]/5-2[8:1],,5b-1[8:1],,5,,6/4-1[8:1],53,
2h[2:1]/4-7[8:1],,4-8[8:1],,4b,,7/1p5[8:1],28,
3/1b,,6/8q4[8:1],17,2/8b,,7/1^6[8:1],28,
1^4[8:1]/3,2,1-5[8:1]/7,8,13,,6/4^7[8:1],53,
2h[2:1]/4-8[8:1],,4b^1[8:1],,4,,3/5^2[8:1],46,
7h[2:1]/5-1[8:1],,5<4[4:1],,5b,,,{16}6,5,
7,,3,4,2,,6,5,7-5[8:1],,8-4[8:1],,7,,8,,
7,,3,4,2,,6,5,{8}7V58[4:1],8,7b,,
1^4[8:1]*^6[8:1],,1b,,35,2,64,7,
1-4[8:1]/8-3[8:1],,1-6[8:1]/8-5[8:1],,1b/8b,,3-8[8:1]/7-4[8:1],8,
3b/7b,,2-5[8:1]/6-1[8:1],1,6b/2b,,7-5[8:1]/3,8,
7/2-5[8:1],1,7-3[8:1]/2,8,71,,2/4-8[8:1],35,
4v1[8:1]/6v1[8:1],,4b/6b,,82,3,45,6,
7v5[8:1]/1-5[8:1],,7-3[8:1]/1,,2-6[8:1]/7,,2v4[8:1]/8-4[8:1],,{1}
2b>1[4:5]/8b<1[4:5],,{12}
27,,,34,34,34,2-5[8:1]/5-1[8:1],,,25,,,{16}
37,,2,4,,7,5,,3,4,2,5,1,6,8,,
2-5[8:1]/5h[4:1],,,,2,,,,8-4[8:1]/4h[4:1],,,,8,,,,
2-7[8:1]/7,,,,7-3[8:1]/2,,,,7/3-6[8:1],,,,36,,,,
27,,,,{12}65,65,65,{16}7-4[8:1]/4-8[8:1],,,,74,,,,
1,5,2,6,4,8,3,7,1,6,3,8,2b,5b,4b,7b,
E
&inote_7=(130){2},,
3h[4:6]/8-6[8:1],5-1[8:1],2-4-8-6[4:1]b,,
3h[4:6]/8-6[8:1]/5!-1[43.3333#24:1]/2!-4-8-6[26#20:1],5$,2$,,
7h[4:6]/1-6[8:1],5-2[8:1],2z6z2[2:1]b,,
7h[4:6]/1-6[8:1]/5!-2[43.3333#24:1]/2!z6z2[26#10:1],5$,2$,,
{4}Chf[4:1],B7/B6/B3/B2,
3h[4:6]/6-8[8:1],,4-6[8:1],,2-4[8:1],2-8-4[4:1]b,,,
3h[4:6]/6-8[8:1]/4!-6[43.3333#24:1]/2!-4[26#40:1]/2!-8-4[21.6667#24:1],,4$,,2$,2$,,,
7h[4:6]/2^3-5[8:1],,6^7-1[8:1],,2-6[8:1],2^8-4^6[4:1]b,,,
7h[4:6]/2^3-5[8:1]/6!^7-1[43.3333#24:1]/2!-6[26#40:1]/2!^8-4^6[21.6667#24:1],,6$,,2$,2$,,,{2}
6h[4:14]/5-7[8:1],5-8[8:1],5-1[8:1],5-2[8:1],
5-3[8:1],4-8[8:1],4q5<4[2:1]b,,
6h[4:14]/5-7[8:1]/5!-8[43.3333#24:1]/5!-1[26#40:1]/5!-2[18.5714#56:1]/5!-3[14.4444#72:1]/4!-8[11.8182#88:1]/4!q5<4[10#104:4],5$,5$,5$,5$,4$,4$,,
3h[4:6]/6^5-7[8:1],6^5-1[8:1],6^5-8[8:1],6^5-2[8:1]b,
3h[4:6]/6^5-7[8:1]/6!^5-1[43.3333#24:1]/6!^5-8[26#40:1]/6!^5-2[18.5714#56:1],6$,6$,6$,{4}
4pp4[4:1]/5h[4:3],4qq4[4:1]b,,,
5h[4:3]/4pp4[4:1]/4!qq4[65#8:1],4$,,,
4h[4:3]/8^3[8:1],8^5[8:1],8-4[8:1]b,8,
4h[4:3]/8^3[8:1]/8!^5[65#16:1]/8!-4[43.3333#24:1],8$,8$,8,
2b/6b,,,27,
8b-6[8:1]/1b,8-5[8:1]/1,8-4[8:1]/1,8-3[8:1]/1,
8-2[8:1]/1,8-6[8:1]/1,8-5[8:1]b/1,1/8,
1b/8b-6[8:1]/8!-5[65#16:1]/8!-4[43.3333#24:1]/8!-3[32.5#32:1]/8!-2[26#40:1],
1/8$,1/8-6[32.5#32:1],8-5[32.5#32:1]/1,8$/1,8$/1,8$/1,8/1,
1b-5[8:1]/8b,1-3[8:1]/8,1-7[8:1]/8,1-4[8:1]/8,
1-6[8:1]/8,1-5[8:1]/8,1-3[8:1]b/8,1/8,
8b/1b-5[8:1]/1!-3[65#16:1]/1!-7[43.3333#24:1]/1!-4[32.5#32:1]/1!-6[26#40:1],
8/1$,8/1-5[32.5#32:1],1-3[32.5#32:1]/8,1$/8,1$/8,1$/8,8/1,
{8}
1b-3[8:1],8-6[8:1],1-5[8:1],8-4[8:1],
1-3[8:1],8-6[8:1],1v4[8:1],8v5[8:1],
1-3[8:1],8-6[8:1],1-5[8:1]b,8,1,,27,,
1-3[8:1]/8!-6[86.6667#12:1]/1!-5[65#16:1]/8!-4[52#20:1],8$,1$,8$/1!-3[86.6667#12:1],
1$/8!-6[86.6667#12:1],8$,
8!v5[86.6667#12:1]/1v4[8:1],8$/1!-3[86.6667#12:1],
1$/8!-6[86.6667#12:1],8$,
1-5[8:1],8,1,,
27,,
{4}
2b^8[8:1],4^2[8:1],6^4[8:1],8^6[8:1],
2-6[8:1],4-8[8:1],6w2[8:1]b,,
2b^8[8:1]/4!^2[65#16:1]/6!^4[43.3333#24:1]/8!^6[32.5#32:1]/2!-6[26#40:1]/4!-8[21.6667#48:1]/6!w2[18.8714#56:1],4$,6$,8$,2$,4$,6$,,
{4}
8^7-5[8:1]/4^3-1[8:1],,8v3[8:1]/4v7[8:1],,
1q6[8:1]/2p5[8:1],1p7[16:5]b/2q4[16:5]b,,,
8^7-5[8:1]/4^3-1[8:1]/8!v3[43.3333#24:1]/4!v7[43.3333#24:1]/1!q6[26#40:1]/2!p5[26#40:1]/1!p7[21.6667#96:5]/2!q4[21.6667#96:5],,8$/4$,,1$/2$,2$/1$,,,
1-3[8:1]/7-3[8:1],,2-6[8:1]/8-6[8:1],,
3pp5[8:1]/7qq5[8:1],7-5-1^6[16:5]b/3-5-1^4[16:5]b,,,
1-3[8:1]/7-3[8:1]/2!-6[43.3333#24:1]/8!-6[43.3333#24:1]/7!qq5[26#40:1]/3!pp5[26#40:1]/7!-5-1^6[21.6667#96:5]/3!-5-1^4[21.6667#96:5],,2$/8$,,7$/3$,7$/3$,,,
E
