&title=ファシネイター
&artist=MARETU
&first=0.51
&des=御坂魅魅
&lv_5=13+
&inote_5=(140)
{4}
4h[4:1],,4h[4:1],,4h[8:1],4h[8:1],4h[8:1],4h[8:1],
{4}
7>2[4:1],,3<6[4:1],,1<6[4:1],,5>2[4:1],,7-3[8:1],8-4[8:1],1-5[8:1],2-6[8:1],
{4}
8-3[8:1]*-5[8:1],8-4-8b[4:1],8,C,
{16}
1,,1/5,,1,4,1,4,1,,13,,1,4,1,4,2,,2,4,,4,2,,2/3<8[4:1],,,,,,2,3,
{16}
4,,4,5,6,,7,6,5,,5,4,3,,2,3,4>2[8:1],,8>2[8:1],,4qq8[8:3],,8,,4,,,,,,,,
{16}
7hx[8:1],,4x,4,6x,3,
{24}
5x,4,5,
{16}
3x,6,
{24}
4x,5,4,
{16}
8bx,,,,
{8}
1x-5[8:15],6,4,7x,2x,5,4x,8x,3,6x,2x,4,8,1x-5b[16:1],,1x,
{8}
7x-3[8:13],6,2,4x,8x,3,6x,5x,1,8x,4x,7-3b[8:1],8x,7,,,
{8}
1xs5[8:15],3,4,2x,3x,2,2x,4x,1,8x,6x,7,8x,7x-5b[16:1],,7x,
{8}
3,4,6,1/2,7,8,3b/4b,7b/8b,
{16}
E1,,E2,,E3,E4,E5,E6,E7,B8,A1,D3,E5,,,,
{16}
2h[8:3]/4,,,,,,4,,3h[8:1]/5h[8:1],,,4h[8:1]/6h[8:1],,,7,,
{16}
7h[8:3]/5,,,,,,4,,3h[8:1]/5h[8:1],,,4h[8:1]/2h[8:1],,,8,,
{16}
7/3h[8:3],,,,,,5,,2/4,,6,,8/6,,8/6,,1>4[4:1],,5,,6,,7,,
{24}
8<5-1[4:1],,,4x,3x,2x,
{16}
1x/8,,,,
{16}
2h[8:3],,,,,,3,,1h[8:1]/4h[8:1],,,8h[8:1]/5h[8:1],,,6,,
{16}
7h[8:3]/5,,,,,,6,,5h[8:1]/8h[8:1],,,1h[8:1]/6h[8:1],,,8,,
{16}
3h[8:3]/7,,,,,,6h[16:1],,
{8}
5,4,3,2,1h[8:1],8h[8:1],7h[8:1],6h[8:1],5<8[16:3],,
{16}
5x,4x,3x,2x,
{16}
1x-5[8:1],,,,7,,6,,4,,6,4,,3,4,,2-6[8:1]/5,,,,8,,7,,5,,7,5,,3,8,2,
{16}
7-3[8:1],,,,1,,2h[16:1],,4h[8:1],,3h[8:1],,2h[8:1],,1h[8:1],,8>3[4:1],,7,,6,,5,,
{24}
4<7-3[4:1],,,3x,2x,1x,
{16}
8x/4,,,,
{16}
1<6[8:1],,,,1/2,,3,,4/5,,3,5,4,5,2,,7/8<5[8:1],,,,1/8,,2h[16:1],,3/4,,2,5,3,4,8,,
{16}
6>3[8:1]/1,,,,1/6,,8,,1,,2,3,,4,5,,7qq4[8:3]/8,,1,,2,,3,,3-1[8:1]*-6[8:1],,,,A3,,,,
{8}
C,,5,,1,,,5,1,1,1-5[8:1],1,5,,,5,1,1,1-5-1[4:1],1x,5x,1x,,1x-4-1[4:1],,7,6,5,1x-6[8:1],,5,,
{8}
8h[8:3],E8,E7,E6,1h[8:3],E5,C,E1,2h[8:3],E2,E3,E4,E5/3h[8:3],E6,E7,E8,
{8}
1-4[8:1],,5-8[8:1],,1-4[8:1],1,5-8[8:1],5,1-4[8:1],2,5-8[8:1],6,3/5,,,
{16}
7x,6,5/4h[8:1],,7x,6,5/2h[8:1],,7x,6,5/1h[8:1],,7x,6,5/8h[8:1],,
{16}
7x,6,5/1,,1/7x,6,5/2,,7x/2,6,5/4x,3,2h[8:1],,6,,1,8,
{16}
2-5[8:1]/7,,2,4,2,,7-4[8:1],,7,5,7,,2,3,6,7,1b/8x,,2/4,3x/4b,,4/5,4b/6x,,2b-5[8:1]/7b-4[8:1],,,,,,,,
{16}
1/5,,1/5,,1-5[8:1],4,1,4,1,,7,,8-4[8:1],5,8,5,8,,3,2,,7,8b7,,2b/7b,,E8,E7,E6,,
{16}
2<8[8:1],3,4,,4,5,6,,7>1[8:1],6,5,,5,4,3,,2,3,
{8}
4>1[8:1],8<5[8:1],4,8,Ch[4:1],,,,
{8}
1xq5[4:1],8,6x,8x,1xp5b[4:1],2,5x,2x,1q5[4:1],5x,7x,5,7,8x<5b[8:1],,8x,
{8}
1-5[4:1],8,6x,8x,1x-5b[4:1],2,5x,2x,1-5[4:1],5x,7x,6x-1b[8:1],7,6x,,,
{8}
1xpp3[4:1],8,6x,8x,1xqq7b[4:1],2,5x,2x,1pp2[4:1],5x,7x,5,7,8x<5b[8:1],,8x,
{8}
1pp3[8:1],1qq7[8:1],1,1,5qq3b[8:1],5pp7b[8:1],5b,5b,
{16}
E3,,E1,,B1,B2,E4,D5,E1,E8,D7,A5,C,,,,
{16}
2h[8:3]/4,,,,,,4,,3h[8:1],,5,4h[8:1],,6,5,,
{16}
7h[8:3]/5,,,,,,4,,5h[8:1],,3,4h[8:1],,2,8,,
{16}
7/3h[8:3],,,,,,5,,2/4,,6,,8/6,,4/6,,2-5[4:1],,5,,6,,7,,
{24}
8,,,4,7,5,
{16}
6-1[8:1],,4,,
{16}
2h[8:3]/6,,,,,,3,,1h[8:1],,4,8h[8:1],,5,7,,
{16}
7h[8:3]/5,,,,,,6,,5h[8:1],,8,6h[8:1],,1,8,,
{16}
3h[8:3]/7,,,,,,6,6,
{8}
5,4,3,2,1-3[8:1],8v3[8:1],1-5-3[4:1],8,1,,
{16}
8,7,6,5,
{16}
2/4-6[8:1],,,,2/4,,3,,2,,2-6[8:1],4,,4,2,,5-3[8:1],,,,5/7,,6,,7,,7-3[8:1],5,,1,7,,
{16}
2-5[8:1],,,,2/7,,6x,6x,5x/7x,,4/6,,3/5,,2/4,,1v3[8:1],,8v5[8:1],,1,,8,,
{24}
2x,,,5,3,4,
{8}
2-5[8:1],3,
{16}
2-8[8:1]/5,,,,2/4,,3,,2/4,,2-5[8:1],4,3,4,2,,6-8[8:1],,,,4/6,,5,,4/6,,7-4[8:1],5,6,5,7,,
{8}
E1,E2,E3,E4,E5,E6,E7,E8,
{24}
Chf[4:3],,,,,,,,,,,,,,,5x,6x,7x,8b,,,,,,
{8}
1/2>5[8:1],5/6,,,3/4v2b[16:2],1/8,C,,
{16}
1>3[8:1]/8,,7/6,,7,6,5,,4hx[4:1],,
{24}
E4,E5,E6,A7f,,,,,,
{8}
1/8p4[8:1],6/5,,,3qq1b[8:1]/2,4/5,C,,7/8,5/6,Ch[128:1],7/8,
{12}
4h/5h,4h/5h,4h/5h,3xh/7bxh[8:1],3xh,3xh,
{8}
1v8[8:1]/8v5[8:1],4/5,,,6v3b[8:1]*-2b[8:1]/7,2/3,C,,
{8}
1/4,5/8,2b,3/6,8hx[4:1],
{24}
4,5,6,7b,,,,,,
{8}
5h[32:3]/7h[32:3],4h[32:3]/6h[32:3],3h[32:3]/5h[32:3],2h[32:3]/4h[32:3],
{16}
2,4,3,5,4,6,5,7,
{32}
1bx,2x,3x,4x,1bx,8x,7x,6x,1bx,2x,3x,4x,1bx,8x,7x,6x,
{12}
5bw1b[16:1],5b,5b,5b,,,
{32}
2bpp6[8:5],3,4,,8b,7,6,,
{8}
,,8-4b[8:1],,8b,,
{32}
7bqq2[8:5],6,5,,1b,2,3,,
{8}
,,3-6b[8:1],3,3b,,
{32}
1bpp4[8:5],8,7,,5b,4,3,,
{8}
,,7<4b[8:1],,7b,,
{32}
3b,2,1,,8b,7,6,,3x/4x,,,,,,,,
{16}
2xh,5xh,4xh,5xh,3xh,5xh,1xh,5xh,
{32}
2b-6-4[8:5],3,4,,8b,7,6,,
{8}
,,8p4b[8:1],,8b,,
{32}
7b-4-6-2[16:9],6,5,,1b,2,3,,
{8}
,,3>8b[8:1],3,
{48}
3b,D3,A2,D2,A1,D1,A8,,,,,,
{32}
4b-1-3-8[8:5],5,6,,1b,2,3,,
{24}
,,,,,,4x,5x-8b[16:1],6x,7x,,,5bx,,,,,,
{32}
1b,2,3,4,8b,7,6,5h[32:9],
{24}
3,,,,,,6x,7x,8x,1x,2x,3x,4b/8b,,,,,,
{32}
1x-5[8:1],2x,,4x,1x,2x,,4x,1>4[8:1],,,,,,,,
{4}
1b/7-3[8:1],7/2,
{32}
1bx-5[8:1],2x,,4x,1x,2x,,4x,1<6[8:1],,,,,,,,
{8}
4/1pp3[8:1],2,1/6,7x,
{32}
1bxv6[8:1],,3x,4x,1x,,3x,4x,1x>4[8:1]*<6[8:1],,,,,,,,
{4}
1v6[8:1],1bx/2,
{32}
1bx<6[8:1],,3x,4x,1x,,3x,4x,1,,,,,,,,
{8}
3/4,5/6,3x/4x,1/7,
{32}
8x-4b[8:1],7x,6x,5x,8x,7x,6x,5x,8<5b[8:1],,,,,,,,
{4}
8b/2-6b[8:1],2/7,
{32}
8bx-4b[8:1],7x,6x,5x,8x,7x,6x,5x,8>3b[8:1],,,,,,,,
{8}
5/8qq6b[8:1],7,8/3,2x,
{32}
1bx-5b[8:1],2x,3x,4x,8x,7x,6x,5x,1w5b[8:1],,,,,,,,
{4}
1,2x/8b,
{32}
1bxpp3pp5b[8:5],2x,3x,4x,1xqq7qq5[8:4],8x,7x,6x,
{4}
,,,
(130)
{8}
3x/5x,4x,4x/6x,5x,
(120)
{8}
2x/8x,1x,2x/8x,
{16}
7h[16:1],,
(110)
{16}
5/4,,7h[16:1],,5/2,,7h[16:1],,5/1,,7h[16:1],,5/8,,
{16}
7h[16:1],,5/1,,1/7h[16:1],,5/2,,7h[16:1]/2,,5/4h[16:1],,2h[8:1],,6,,1h[16:1],,
{16}
2/7,,3h[16:1],,2,,7/2,,6h[16:1],,7,,3h[16:1],,7h[16:1],,1/8,,2h[16:1],4,,6h[16:1],4,,3v8[8:1]/6v1[8:1],,,,,,,,
(105)
{16}
1,,4,,1,4,,4,8,,5,,8,5,,5,7,,6,7,,6,1x,,
(100)
{8}
1-5[4:1],,,8h[16:1],
(95)
{8}
7>2[4:1],,,4h[16:1],
(90)
{8}
3<6[4:1],,,7h[16:1],
(85)
{4}
E1,E3,
(82.5)
E5,E7,
(140)
{8}
5x-3[8:1],7,8-2[8:1],5x,6x-2[8:1],8,7x-3[8:1],5,8-2[8:1],6x,7x-3[8:1],8,6,1w5b[8:1],,1,
