&title=Gravitational Revert
&artist=Kyutatsuki
&first=0
&des=HK416 TZ vs YumeSaki
&des_5=HK416 TZ vs YumeSaki
&lv_5=14+
&inote_5=(227){4}1/8qq5[4:12],,1h[4:1],,
1h[4:1],,1h[4:1],,
2h[4:1],,2h[4:1],,
2h[4:1],,2h[4:1],,
3/4pp8[4:12],,3h[4:1],,
3h[4:1],,3h[4:1],,
4h[4:1],,4h[4:1],,
4h[4:1],,4h[4:1],,
6/5>2[4:5],,6,6,
7,7,7,7,
8/1>4[4:5],,8,8,
7,7,7,7,
5p2[4:5]/6,6,6,6,
7,7,7,7,
8p5[4:5]/1,1,1,1,
2,2,2,2,
{8}3,5,3,5,3,5,4,6,
4,6,4,6,3,5,4,{16}6,5,
,,{8}2,7,5,7,4,6,4,
5,3,5,4,6,4,7,3,
{1}8bqq4[4:5],
{8},,,,,,2,{16}2,5,
{1}2qq6[4:5],
{4}7,7,7,7,
{8}6,6,5,{16}5,6b,4b,6b,,,3b,5b,{8}3b,
2b,2b,,,{4}1,2/7,
{16}3,4,3,4,{8}3,{16}6,5,{8}6,{16}3,7,3,8,2,8,
1,1b,1b,1b,1b-5[8:1],1b,1b,1b,{8}1b,8,{4}8,
{16}3,5,3,5,3,5,3,5,2b,6b,2b,6b,2b,6b,2b,6b,
1,7,1,7,1,7,1,7,8b,8b,8b,8b,8b,8b,{8}8bh[16:1],
{32}1b,2b,3b,4b,5b,6b,7b,8b,1b,2b,3b,4b,5b,6b,7b,8b,1b,2b,3b,4b,5b,6b,7b,8b,1b,2b,3b,4b,5b,6b,7b,8b,
{4}1b,6b,4b,8b,
{8}2-5[8:1],2,7-4[8:1],7,3-8[8:1],3,6-1[8:1],6,
2-5[8:1],2,7-4[8:1],7,3-8[8:1],3,5<8[8:1],5,
1b,2,3,4,1-6[8:1],1,2-5[8:1],2,
4-7[8:1],4,3-8[8:1],3,6-1[8:1],6,{4}2,
{8}3-1[8:1],4,{4}3,{8}6-8[8:1],5,{4}6,
{8}2-7[8:1],1,{4}2,{8},,7,8,
6<8[8:1],5,6,4,2>4[8:1],1,2,8,
6<1[8:1],5,6p3[2:1],4,{2}6,
{8},2,2-5[8:1],2,4-7[8:1],4,3-8[8:1],3,
6-1[8:1],6,5-2[8:1],5,7-4[8:1],7,8-3[8:1],8,
5,5b-8[8:1],1,2,3,3b-6[8:1],1,8,
7,7b-4[8:1],8,8,{2}1h[2:1],
{8},8,7,6,7,6,5,6,
{16}5b/7b,,,2b/5b,,,{8}3b/7b,3b/7b,2,1>4[8:1],8,
1,7,8<5[8:1],2b,8b,2,1b-3[8:1],4,
1b-7[8:1],6,1b-5[8:1],5,,,{4}8b,
{8}1/4,{24}8,7,6,{8}5,4,3,3,2,2,
{24}8,7,6,5,,,{8}1,1,8,8,7,7,
{8}4/6,{24}3,2,1,{8}8,7,6,6,5,5,
{24}34,2,1,8,,,{8}5,5,6,6,7,7,
8b/1b,8b/1b,,2,4,5,7,1b-3[8:1]/8b-6[8:1],
,18,,1-5[8:1]/8-4[8:1],,8b/1b,,,,34,
{32}2>5[8:1],1,8,7,,,,,{8}2b,6,78,12,
{32},,,,3>8[8:1],4,5,6,{8}7,3b,7,5b/6b,4,37,
28,{32}1,28,37,64,{8}5,{16}3b,4,3,4,3,4,3b,4,{8}2,
2,{24}1,8,7,{8}6,{16}2b,5,2,5,2,5,2,5,{8}3,
3,{24}8,7,6,{8}5,{24}1,8,7,6,5,4,3,2,1,{8}85,5,
{32}4,3,2,1,{8}8,{24}4b,3,2,1,,5,6,7,8,2,3,4,,6,7,8,,,{8}1,
{32}1,2,3,4,{8}5,{24}1,8,7,6,5,4,3,2,1,8,7,6,5,,,{8}1,
{32}4,5,6,7,{8}8,{16}2b,3b,{8}2b,{16}7b,8b,{8}7b,7b,
1,{32}81,7,6,5,{8}4,2-6[8:1],,2,{4}7-3[8:1],
{2}7,{24}1b,2,3,4,5,6,7,8,1,2,3,4,
{1}5v3[1:10]/7>3[4:37],
,,,,,,,,,,,,,,,{4}25,
{8}3,5,{4}4,{8}47,{16}6,5,
{8}6,47,,38,{16}2,1,2,1,{8}2,38,
{2}3v1[8:1]/8-6[8:1],{16}2,7,{8}4,36,{16}5,2,
{2}7,{16}7,8,7,8,{8}7,6,
{2}6-3[8:1],{16}2b,1b,,,{8}3b/8b,{16}4b,7b,
{2}5b-1[8:1],{16}2,4,2,5b,{8}3b,4b,
{2}4b-1[8:1],{16}7,2,{8}5,63,{16}4,7,
{2}2-5[8:1],{16}7,6,7,6,{8}7,8,
8,1,1,{16}2b,4,2,4,,,6<1[8:1],5,{8}6,
,2,{16}3p2[8:3],4,{8}3,{16},,,,,,,,7v4[8:1],
8,6,8,{4}7,{16},,3,5,3,5,3,5,
2,6,1,7,{4}8w4[4:1],{16},,,,,,,,3b,
4,3,4,2b,5,2,5,1b,6,1,6,8b,7,8,7,
5b,6,5,6,4b,7,4,7,3b,8,3,8,2b,1,2,1,
2,{32}3b,4b,5b,6b,7b,8b,1b,2b,3b,4b,5b,6b,7b,8b,1b,2b,3b,4b,5b,6b,7b,8b,1b,2b,3b,4b,5b,6b,7b,8b,
{4}1b,5b,3b,7b,
{8}1-5[8:1],1,7-3[8:1],7,2-6[8:1],2,8-4[8:1],8,
5-1[8:1],5,7-3[8:1],7,2-6[8:1],2,4b-8[8:1],4,
3b,,,1b/2b,1b/8b,8b/7b,{4}1>6[8:1]/6,
16,8<3[8:1],83,1>6[8:1],
16,8<3[8:1],8b/3b,{8}2,1,
{4}8<5[8:1]*p4[8:1],8,
1>4[8:1]*q5[8:1],1,8-5[8:1]*-4[8:1],8,1-4[8:1]*-5[8:1],1,
{8}2q6[8:1],1,{4}2,{8}7q3[8:1],8,{4}7,
{8}5p1[8:1],6,{4}5,{8}4p8[8:1],3,{4}4,
{8}2>5[8:1],1,{4}2,8h[8:1],8h[8:1],
{24}1b,2,3,4,5,6,7b,8,1,2,3,4,5b,6,7,8,1,2,3b,4,5,6,7,8,
1b/5,2,3,4,5,6,7b/3,8,1,2,3,4,5b/1,6,7,8,1,2,3b/7,4,5,6,7,8,
5b,2,3,4,5,6,3b,8,1,2,3,4,1b,6,7,8,1,2,7b,4,5,6,7,8,
{4}1b-4[8:1]*-6[8:1],1-5[8:1],{8},,7,7,
2,2-5[8:1],,7-4[8:1],,3-8[8:1],,6-1[8:1],
,2z6[8:3],,2h[8:3],{16},,,,,,,,3,
5,{8}4h[4:1],{16},,,,8,1,{8}7h[4:1],,,{4}1^4[8:1]*^6[8:1],
1w5[8:1],{2}1b,
{8}25,{16}3,4,{8}3,26,7-4[8:1],1-5[8:1],7,1,
7,{16}6,5,{8}6,37,2-5[8:1],8-4[8:1],2,8,
2,{16}3,4,{8}3,26,45,73,2,{16}2,1,
{8}3,{16}7,8,{8}7,46,28,35,17,46,
38,{16}2,1,{8}2,37,6-1[8:1],4-8[8:1],6,4,
6,{16}7,8,{8}7,26,3-8[8:1],5-1[8:1],3,5,
3,{16}2,1,{8}2,37,18,62,3,{16}3,4,
{8}2,{16}6,5,{8}6,17,35,28,46,17,
26,{16}3,5,{8}4,26,7-4[8:1],7,1-4[8:1],1,
7,{16}7,5,{8}6,48,2-5[8:1],2,8-5[8:1],8,
2,{16}3,4,{8}3,26,45,73,2,{16}2,1,
{8}3,{16}7,8,{8}7,46,28,35,1-5[8:1]/7,46,
1>4[8:1],{16}8,7,{8}6/1,7-3[8:1],1q5[8:1],7,1,8p4[8:1],
2-6[8:1],7,2,7,{16},56,,,{8}4-7[8:1]/5,45,
{4}34,2b,
E
