&title=【踊】キスキツネ
&artist=HIMEHINA
&first=0.02
&des=Holinality
&clock_count=4
&lv_7=13
&inote_7=(148)
{1}
,
{8}
,,,,3!v6b[8:6]/6!v3b[8:6],,3x/6x,,
,,,,,,Cf,,
,,,,8xv2v7[8:5]/1xv2v7[8:5],,,,
,,,,,,3<6[4:3],,
3h[4:3],,,,,,,,
2-6[8:1]/7-3[8:1],,2-7[8:1]/7-2[8:1],,2x/7x,,,,
8h[4:1]/6h[4:1],,,,1-5[8:1]/8-6[8:1],,1/8,,
2<7[8:2]/6>3[8:2],,2/6,,,,,,
A1,A2,A7,A8,A4,A3,A6,A5,
6,3,E7,E3,1x-3[8:1]/8x-6[8:1],,,,
5x/8x,,1>4[8:2]/4>1[8:2],,14,,,,
7bx-2[74#8:1]/4,,2-7[4:1]/5,,2/7,,,,
A1,A2,A7,A8,A4,A3,A6,A5,
6qq7[8:4],3pp2[8:3],,,,,,,
7<5[8:4]/2>4[8:4],,,,,,,,
,,,B6,A7,,5xpp7[8:1],,
5/4qq2[8:1],,4,,C,,2q7p2[8:4]/7,,
2/3h[8:4],,,,A2,,5pp5pp5pp5pp5[8:6],,
2h[8:6],,,,,,,,
27,5hx[8:7]/4hx[4:1],,,,,7!-2b[8:1],,
7,,2!-6b[8:1]/7!-3b[8:1],,2/7,,3!>1s5b[8:6]/6!<8z4b[8:6],,
36,,,,,,7!-2b[8:1],,
5/7,,3<6>3<6[8:7],,3hx[8:10],,,,
,,,,,,8b,,
,,35,,35,,3/5<7[8:1],,
5,,2p4[8:2],,2,,3!>7b[8:2],,
3,,6!-2b[8:1],,6,,7!-3b[8:1]/4!-6b[8:1],,
7x/4x,,2!-6b[8:1]/5!-3b[8:1],,2x/5x,,6!-3q8b[8:4],,
6x,,,,,,,,
3h[8:6]/5h[8:6],,,,,,3!<6b[8:2],,
3,,,,2-4-1[8:3],,8-6[8:2],,
,,,,,,B6f/2!<7-3-6b[8:5]/2!<7-3b[16:7]/B3/B2/E3,,
1x/2x,,,,4hx[4:1],,,,
B7f,,E7,,E3/7!qq8b[8:2]/3!pp2b[8:2],,37,,
,,E3,,E7/7!qq8b[8:2]/3!pp2b[8:2],,37,,
,,17,,28,17,2/8/7!-4b[8:1],,
7/2!-5b[8:1],,2,,6,3,5pp7[8:1]/4!qq2b[8:1],,
5/4,,C/8!-6b[8:1],,8/1!-3b[8:1],,1,,
6qq4[8:2],,6h[8:2],,,,5h[4:1],,
B5,,4x-2[8:1]/5x-7[8:1],,45,,1/3hxb[4:3],,
1-6[8:2],,1,,,,14,,
8<5[8:2]/5<8[8:2],,85,,,,24,,
A8,A7,A2,A1,A5,A6,A3,A4,
3,6,E3,E7,8x-6[8:1]/1x-3[8:1],,,,
4x/1x,,8<5[8:2]/5<8[8:2],,85,,,,
2bx-7[74#8:1]/5,,7-2[4:1]/4,,7/2,,,,
A8,A7,A2,A1,A5,A6,A3,A4/2!pp8b[296#8:6]/7!qq3b[296#8:6],
2x/7x,,,,,,8/3,,
{32}
8/3,,,,,,,,
8/3,,,,,,,,
A2/A7,B2/B7,C,,,,,,
A2/A7,B2/B7,C,,,,,,
{64}
E5/B4,B3,B2,B1,B8,B7,B6,B5,
,,,,,,,,
E5/B4,B3,B2,B1,B8,B7,B6,B5,
,,,,,,,,
{32}
1b/7b,,,,,,,,
8b/2b/1!s5b[8:2]/8!z4b[8:2],,,,,,,,
18,,,,,,,,
,,,,,,,,
8,,1,,7,,2,,
8/3!-6-3b[8:2]/7!-2-7b[8:2],,1,,7,,,,
3x/7x,,,,,,,,
,,,,,,,,
B7,,,,,,,,
B7f,,,,,,,,
B7/E2,,,,,,,,
B7/E2,,,,,,,,
17,,,,,,,,
28,,,,,,,,
2h[8:2]/8h[8:2],,,,,,,,
,,,,,,,,
A8/E8/E1/A2/E2/E3,,,,,,,,
A8/E8/E1/A2/E2/E3,,,,,,,,
28,,,,,,,,
28,,,,,,,,
2/8/2!q6>1b[8:3]/7!p3<8b[8:3],,,,,,,,
2/7,,,,,,,,
7!p3b[8:2],,,,,,,,
7x,,,,,,,,
1!pp3b[8:2]/8!qq6b[8:2],,,,,,,,
1/8,,,,,,,,
{8}
,,,,1xv7v2[8:5]/8xv7v2[8:5],,81,,
,,,,,,6>3[4:3],,
6h[4:5],,,,,,4!>1b[8:1],,
4,,,,A1/6,,E3/6/2!-5b[8:1],,
6/2,,7!-4b[8:1],,7/3,,1!-3b[8:1]/8!-6b[8:1],,
81,,6!>3b[8:1],,6,,4x-1[8:5],,
4b,,,,,,,,
{24}
A7,,E8,,E7,,
A2/2!v7b[8:1]/7!v2b[8:1],,E2,,E3,,
2x/7x/7!-4b[8:1],,,,,,
7x/4!-7b[8:1],,,,,,
{8}
3x/4bx,,,,3<6>3[8:4]/6h[8:6],,,,
,,,,5-2[8:1],,5,,
6!<8b[8:3]/4!>2b[8:3],,64,,,,6!-1b[8:1],,
6x,,5<8b[8:1],,5,,6!<2b[8:2],,
6,,3!-7b[8:1],,3,,2!-6b[8:1]/5!-3b[8:1],,
2x/5x,,7!-3b[8:1]/4!-6b[8:1],,7x/4x,,3!v6b[8:2]/6!v3-1b[8:4],,
3x/6x,,,,,,,,
4h[4:8]/6h[4:8],,,,,,,,
,,,,,,,,
,,,,6>3[8:1],,6/5!<8b[8:12]/4!>1b[8:12],,
5x/4x,,,,,,,,
{8}
,,,,,,,,
,,,,,,,,
,,,,8x-6[8:1]/1x-3[8:1],,,,
4x/1x,,8<5[8:2]/5<8[8:2],,85,,,,
2bx-7[74#8:1]/5,,7-2[4:1]/4,,7/2,,,,
A8,A7,A2,A1,A5,A6,A3,A4,
2h[4:1],,8-6[8:1],,,,B6f/2!<7-3-6b[8:5]/2!<7-3b[16:7]/B3/B2/E3,,
1x/2x,,,,4hx[4:1],,,,
B7f,,E7,,E3/7!qq8b[8:2]/3!pp2b[8:2],,37,,
,,E3,,E7/7!qq8b[8:2]/3!pp2b[8:2],,37,,
,,17,,28,17,2/8/7!-4b[8:1],,
7/2!-5b[8:1],,2,,6,3,5pp7[8:1]/4!qq2b[8:1],,
5/4,,C/8!-6b[8:1],,8/1!-3b[8:1],,1/6!q2b[8:2]/2!q6b[8:2],,
6/2,,,,6!p2b[8:2],,6,,
,,,,,,B6f/2!<7-3-6b[8:5]/2!<7-3b[16:7]/B3/B2/E3,,
1x/2x,,,,4hx[4:1],,,,
B7f,,E7,,E3/7!qq8b[8:2]/3!pp2b[8:2],,37,,
,,E3,,E7/3!pp2b[8:2]/7!qq8b[8:2],,73,,
,,82,,71,82,2/8/7!-4b[8:1],,
7/2!-5b[8:1],,2,,6,3,5pp7[8:1]/4!qq2b[8:1],,
5/4,,C/8!-6b[8:1],,8/1!-3b[8:1],,1,,
6qq4[8:2],,6h[8:2],,,,5h[4:1],,
B5,,4x-1-6[8:2]/5x-8-3[8:2],,45,,1!>4b[8:4]/8!<5b[8:4],,
1x/8x,,,,,,14,,
8<5[8:2]/5<8[8:2],,85,,,,24,,
A8,A7,A2,A1,A5,A6,A3,A4,
3,6,E3,E7,8x-6[8:1]/1x-3[8:1],,,,
4x/1x,,8<5[8:2]/5<8[8:2],,85,,,,
2bx-7[74#8:1]/5,,7-2[4:1]/4,,7/2,,,,
A8,A7,A2,A1,A5,A6,A3,A4/2!pp8b[296#8:6]/7!qq3b[296#8:6],
2x/7x,,,,,,8/3/8!<5b[8:3]/1!>4b[8:3],,
81,,,,8!>2b[8:1]/3!-7b[8:1],,83,,
,,,,,,,,
,,,,,,,,
,,,,,,,,
,,,,,,,,
,,,,,,,,
,,,,,,,,
,,,,,,,,
,,,,,,,,
