&title=うい麦畑でつかまえて
&artist=しぐれうい
&first=0.466
&lv_5=14
&des_5=伊拉莎玛
&inote_5=
(168){4},{8},,,,,,,,,,,,,{16}5,
4,
{8}5h[8:1],2h[8:1],3h[8:1],4h[8:1],5h[16:5],{16}6,7,8,1,2,3,
6/4,{8},{16}1/8,{8},5/3,,{16}1,8,{4}2b/7b,
{8}3/4,1,5/7,8h[4:1],{16}1,2,3,4,{8}5/6,1,
5/3,8,6/5,2,{16}2h[16:3],{8},{16}3h[16:3],{8},4,
6/5,7,4/2,1h[4:1],{16}8,7,6,5,{8}4/3,8,
4/6,1,3/4,6,1/8,8h[16:1]/1h[16:1],2/7,7h[16:1]/2h[16:1],
3b/6b,1,4/5,8,{16}2,7,3,6,{8}4h[8:1],5,
3/8,2,1/6,7,{16}7h[8:1]/8h[8:1],{8},{16}6h[8:1]/1h[8:1],{8},2h[16:1]/5h[16:1],
{16}1,4,2,5,3,6,4,7,5,8,4,7,3,6,2,5,
1,8,7,6,8/5,7,6,5,7/4,6,5,4,{4}3b/7b,
{8}7/3,{4},{8}2,2h[2:1],5,6,7,
8h[8:5],{4},{8}3,2,1,{4}8-4[8:1]/1-5[8:1],
{8}1/8,{4},{8}7/2,{2}2h[8:3]/7h[8:3],
{8}1/8,{4},{8}6,5/3,2,1/7,{32}7/1,2,3,4,
{4}5h[1:1],6,{8}7,{4},{8}8,
8h[1:1],{4},{8}4,3,2,{4},1,
2/1,3/8,4/7,
{8}4/6,2/1,8/4,2/7,{24}1,8,1,8,1,8,{4}1b,
{32}1/7,2,3,4,{8},{32}7/1,6,5,4,{4},{8}7/1<6[8:1],2,1/3,
,5/4,3,2/8,7,7,1,1,
{32}8/2,7,6,5,{8},{32}8/2,3,4,5,{4},{8}2/8>3[8:1],,8/6,
,4/5,6,1/7,2,2,8,8,
{32}1/7,2,3,4,{8},{32}7/1,6,5,4,{4},{8}7/1<6[8:1],2,1/3,
,4/5,{4}4-8[8:1]/5-1[8:1],4>1[8:1]/5<8[8:1],4/5,
{8},8,8,1,1,8-4[8:1],,8/1,
,2b/6b,6b/2b,3b/7b,{4}3b/7b,8-5[8:1]/4-1[8:1],
8/4,1/5,1-4[8:1]/5-8[8:1],1/5,
{8}4/8,8/4,3/7,3/7,2/6,6/2,{4}1>4[8:1]/5<8[8:1],
1/5,1/5,8<5[8:1]/4>1[8:1],4/8,
{8}8/4,{16}1/5,2/6,{4}7-4[8:1]/3-8[8:1],{2}3/7,
{8}1/7,1,5/3,5,3/1,3,7/5,7,
6/4,4,8/3,8,2/5,2,6/4,6,
{16}5,6,5,6,4,7,4,7,{32}3,2,1,8,7,6,5,4,8/3,1,2,3,4,5,6,7,
{2}2/8h[2:1],{32}1,2,3,4,{8}5b/6b,{4}2b/8b,
1>4[8:1]/8<5[8:1],1-5[8:1]/8-4[8:1],1/8,{8}7/2-5[8:1],1,
2/7-4[8:1],6,7/1,8,{4}2/6,{8}7/3-8[8:1],4,
3/5-1[8:1],6,5/2,3,{4}4/8,{8}4/8,2/6,
,1/5,3/7,2/6,{4}4/8,{8}1-5[8:1]/2-6[8:1],3/8,
{4}2>5[8:1]/1<6[8:1],1-5[8:1]/2-6[8:1],2/1,{8}3/7-3[8:1],8,
7/2-5[8:1],1,2/8,7,{4}4/8,{8}8/2h[4:1],7,
6,8/2h[4:1],7,6,{4}4/5-8[8:1],{8}5/4,1,
,1/8,2/7,3/6,{4}4-1[12:1]/5-8[12:1],4b/5b,
{8}1/7,6,2/8,{16}3,3,{8}5-2[8:1],2-7[8:1],5,1,
,3,2,1,{16}7h[8:1]/8h[8:1],{8},{16}6h[8:1]/1h[8:1],{8},2h[16:1]/5h[16:1],
3/4,2,5/6,{16}7,7,{8}4-8[8:1],8>3[8:1],4,7,
,4/8,,2/6,1/7,7h[16:1]/1h[16:1],2/6,6h[16:1]/2h[16:1],
5b/4b,3,8/2h[4:1],1,{16}1,8,7,6,{8}5/4,2,
{16}1h[8:1]/8h[8:1],{8},{16}2h[8:1]/7h[8:1],{8},3h[8:1]/6h[8:1],,4/5,3/7,2/6,
{24}5/1,2,3,4,5,6,7/3,8,1,2,3,4,5/1,6,7,8,1,2,3/7,4,5,6,7,8,
{8}1/5,2b/6b,2b/6b,3b/7b,3b/7b,4b/8b,4b/8b,1b/5b,
1/5-1[8:1],{4},{8}8,7,6,{4}5,
{16}7/4,{8},{16}8/1,{8},2/5,,{16}8,1,{4}6b/3b,
{8}5,{16}4,4,{8}6,3,{16}6h[16:3],{8},{16}3h[16:3],{8},5,
{16}4,4,5,5,{8}3,6,{16}3h[16:3],{8},{16}6h[16:3],{8},3,
5,4,6,3,{16}6h[16:3],{8},{16}3h[16:3],{8},5,
{16}4,4,5,5,4,4,{8}5,{2}6h[8:1]/3h[8:1],
2>5[4:3],5,
8<5[4:3],5,
3>8[4:3],8,
{8}5<8[8:5],{4},{8}4,3,2,1,{32}1,2,3,4,
{4}5h[1:1],8,{8}1,{4},{8}8,
8h[1:1],{4},{8}4,3,2,{4},1,
3>8[8:1]/7<4[8:1],{8}3/7,{4},{8}8/4,
1/5,1/5,2/6,2/6,{32}3,4,5,6,7,8,1,2,{4}3/7,
{32}8-3[8:1]/4-7[8:1],7/3,6/2,5/1,{8},{4}4/8,{8},8-4[8:1],{4}8,
{8}1-5[8:1],1,,7-4[8:1],,7,2,1,
{32}1-6[8:1]/5-2[8:1],2/6,3/7,4/8,{8},{4}5/1,{8},7h[8:1],6h[8:1],5h[4:1],
,4h[8:1],8,8,3,2/8,7,1/6,
{32}8,1,2,3h[32:13],{8},{32}1,8,7,6h[32:5],{4},{8}7-3[8:1],,1,
1,1-5[8:1],,8,{4}8-4[8:1],8,
{8},5,4/6,4/6,3/7,3/7,2/8,2/8,
{4}1>4[8:1],1<6[8:1],1,3<6[8:1]/7-4[8:1],
3/7>2[32:11],4-1[8:1],4-8[8:3],7-3[8:1],
7,1-4[8:1]/5-8[8:1],1/5,6>3[8:1]/2-5[8:1],
6/2<7[32:11],5-8[8:1],5-1[8:3],2-6[8:1],
2,8-5[8:1]/4-1[8:1],8/4,{8}3<6[8:1]/7-4[8:1],3/7,
{4}3/7>2[32:11],4-1[8:1],4-8[8:3],7-3[8:1],
7,1-4[8:1]/5-8[8:1],1/5,{8}7,6,
{24}4,5,4,5,4,5,4,5,4,5,4,5,4,5,4,5,4,5,4-1[2:1],5,4,5,4,5,
{8}4b,{2},{8}2b/6b,{4}4b/8b,
{32}1/7h[8:1],2,3,4,{8}5,{32}7/1h[8:1],6,5,4,{8}3,{32}1,8/2,7/3,6/4,{8}5,3/7,3,
2/6,6,1/5,1,{4}8/4-8[8:1],{8}8,1,
2,3,4/8>3[8:1],5,{4}6,{8}7/4>1[4:1],4/7,
,6,5,4,{4}3/7,{8}1-5[8:1],5,
{4}1<6[8:1],1>4[8:1],1,{8}1-5[8:1],4,
3,2,1/5>2[8:1],8,{4}7,{8}1/8h[4:1],2,
3,1/8h[4:1],2,3,{4}5/4-1[8:1],{8}4/5,8,
,1/8,2/7,3/6,{4}4-8[8:1]/5-1[8:1],4b/5b,
{8}8/2,3,7/1,{16}6,6,{8}4-7[8:1],7-2[8:1],4,8,
,6,7,8,{16}2h[8:1]/1h[8:1],{8},{16}3h[8:1]/8h[8:1],{8},7h[16:1]/4h[16:1],
6/5,7,4/3,{16}2,2,{8}5-1[8:1],1<6[8:1],5,2,
,5/1,,7/3,8/2,2h[16:1]/8h[16:1],7/3,3h[16:1]/7h[16:1],
4b/5b,6,1/7h[4:1],8,{16}8,1,2,3,{8}4/5,7,
{16}8h[8:1]/1h[8:1],{8},{16}7h[8:1]/2h[8:1],{8},6h[8:1]/3h[8:1],,5/4,7/3,6/2,
{24}1/5,2,3,4,5,6,7/3,8,1,2,3,4,5/1,6,7,8,1,2,3/7,4,5,6,7,8,
{8}1/5,2b/6b,2b/6b,3b/7b,3b/7b,8b/4b,4b/8b,1b/5b,
1/5-1[8:1],{4},{8}8,7,6,{4}5,
{16}2/4,{8},{16}1/8,{8},5/7,,{16}1,8,{4}2b/7b,
{8}3/6,{16}3/6,3/6,{4},{16}3,4,3,4,{4}2h[4:1],
{8}4,{16}1/5,1/5,{4},{16}6,5,6,5,{4}7h[4:1],
{8}5,{16}4/8,4/8,{4}4/8,{16}2,4,2,4,{4}1h[4:1],
{16}5,{8},{16}2/6,{4}6/2,{16}7,5,7,5,{4}8h[8:1],
{16}3,4,3,4,2,5,2,5,3b,4b,2b,5b,{4}1b,
{16}7,8,7,8,6,5,6,5,6b,5b,7b,4b,{4}8b,
{8}4/8-4[8:1],7,8/2-6[8:1],1-5[8:1],2>5[8:1],1,{4}2,
{8}8/6-3[8:1],1,6/2>5[8:1],1-5[8:1],2<7[8:1],1,{4}2,
4b/6b,{16}4,6,4,6,3,5,3,5,2,4,2,4,
{4}1h[4:1],{16}8,7,1/6,2,7/3,6,5/2,3,4/8,7,6/1,2,
3/7,6,5/2,3,4/8,7,{8}6/1h[8:3],,,,1>4[8:1]/5<8[8:1],
,1-6[8:1]/5-2[8:1],,1/5,,5/1,6/2,7/3,
{4}4b/8b,{16}4/8,3/7,2/6,1/5,8,7,6,5,{8}4/8,2,
1/7,1,5/8,5,{16}1/5,2/6,3/7,4/8,1,2,3,4,
{8}5/1,6,4/8,3,1/5,7,4/8,2h[16:3],
,{16}6/2,7/3,{4}4/8-4[8:1],{8},1h[8:1],5h[8:1],7h[16:9],
{4},3h[16:3],{32}7/3,8/4,1/5,2/6,7/3,8/4,1/5,2/6,{4}3b/7-3[4:7],
{1},,2-6[1:1],
{16}1,{8},{16}1,{8},1,{32}1,2,3,4,5,6,7,8,{4}5/1,
{8}3/4,3,2/4,2,{4}4/1>4[8:1],4/1,
5/6,5/7,5/8,5/8-5[8:1],
8/1-4[8:1],1/2-7[8:1],2/6-3[8:1],{8}6/1-5[8:1],1,
{4}1/4>1[8:1],{8}4,8<5[8:1],,1h[4:1],{4},{24}4,
8,4,8,4,8,4,8,4,8,4,8,4,8,4,8,4,8,4,8,4,8,4,8,
{8}4b,{2},{8}4b/8b,{4}6b/2b,
1>4[8:1]/5<8[8:1],1-6[8:1]/5-2[8:1],1/5,{8}1-5[8:1],1,
7-3[8:1],7,4-1[8:1],4,{4}5<8[8:1],{8}5,4,
3<6[8:1],2,1,8>3[8:1],{4}7,{8}6,6,
,3/7,6/4,2/5,{4}1/8,{8}7<4[8:1]/3>8[8:1],4/8,
{4}7-2[8:1]/3-6[8:1],7>2[8:1]/3<6[8:1],7/3,{8}7-3[8:1],7,
8-4[8:1],8,1-5[8:1],1,{4}2-7[8:1],{8}2,3,
4-1[8:1],5,6,7,{4}8-4[8:1],{8}8,2,
,1b/5b,1b/5b,7b/3b,{4}3b/7b,{8}3b/8b,{16}2,1,
2-5[8:1],1,{8}2,2/8-4[8:1],7,8/1,2,6/1-4[8:1],1/6,
,8,7/1-5[8:1],2,{16}1/8-4[16:1],{8},{16}8/2-5[16:1],{8},2,
6,{16}7,8,7-4[8:1],8,{8}7,7/1,2,3/8-5[8:1],8/3,
,4,,1,{32}1/7h[16:7],2,3,4,5,6,,8,1,2,3,4,5,6,,8,
{8}6b/1b,{16}7,8,7-4[8:1],8,{8}7,7/1,2,3/8-4[16:1],8/3,
{16}8/2-6[16:1],{8},{16}2/7-3[16:1],{8},7/1,,5/4,7/3,6/2,
{24}1/5,2,3,4,5,6,7/3,8,1,2,3,4,5/1,6,7,8,1,2,3/7,4,5,6,7,8,
{8}1/5,2b/6b,8b/1b,6b/4b,7b/2b,5b/3b,1b/6b,8b/4b,
2/5<8[8:1],{4},{8}4,3,2,{4}1,
{16}2/4,{8},{16}1/8,{8},5/7,,{16}1,8,{4}3b/6b,
{8}8b/2-5[8:1],{16}2,1,{8}2,8,1/7-4[8:1],{16}7,8,{8}7,1,
7/3,{16}2-5[8:1],1,{8}2,1/2,{16}7-3[16:1],{8},{16}7/1-5[16:1],{8},1/8,
7-4[8:1],{16}7,8,{8}7,1,8/2-5[8:1],{16}2,1,{8}2,8,
2/6,{16}7-4[8:1],8,{8}7,7/8,{32}1,8,7,6,5,4,3,2,1,8,7,6,5,4,3,2,
{8}1b/7-4[8:1],{16}7,8,{8}7,1,8/2-5[8:1],{16}2,1,{8}2,8,
4/6,3/7,2/8,1,{16}2h[8:1]/8h[8:1],{8},{16}3h[8:1]/7h[8:1],{8},4h[16:1]/6h[16:1],
{24}3/7,2,1,8,7,6,5/1,4,3,2,1,8,7/3,6,5,4,3,2,1/5,8,7,6,5,4,
{8}3/7,2b/6b,1b/8b,3b/5b,2b/7b,4b/6b,8b/3b,1b/5b,
7/4>1[8:1],{4},{8}7,6,5,{4}4<7[8:1],
{16}4/3,{8},{16}1/8,{8},5/6,,{16}4,5,{4}2b/7b,
{16},,,,,,,7-2[32:1],
E
&lv_6=14
&des_6=伊拉莎玛
&inote_6=
(168){4}1h[2:3],,,,,,{8}3h[8:1],
5h[8:1],7h[8:1],{16}2,1,
{8}2h[8:1],3h[8:1],4h[8:1],5h[8:1],6h[16:5],{16}7,8,1,2,3,4,
5/1,{8},{16}7/3,{8},8/1-5[8:1],,{16}8,7,{4}6b,
{8}4/3,1>4[8:1],8/6,{16}4,5,6,7,8,1,{8}2h[8:1],5-8[8:1],
,3,2,1,{16}8h[8:1]/7h[8:1],{8},{16}5h[8:1]/4h[8:1],{8},2/1,
8/3,4>1[8:1],5/7,{16}1,8,7,6,5,4,{8}3h[8:1],8-5[8:1],
,4,3,2,5/1,5h[16:1]/1h[16:1],7/3,7h[16:1]/3h[16:1],
6b/4b,8<5[8:1],1/2,{16}5,4,3,2,1,8,{8}7h[8:1],4-1[8:1],
,6,7,8,{16}1h[8:1]/2h[8:1],{8},{16}3h[8:1]/8h[8:1],{8},4h[16:1]/7h[16:1],
{16}8<3[16:3],1,2,3,{4}4/8,{16}1>6[16:3],8,7,6,{4}5/1,
{16}8,1,2,3,4/1,2,3,4,5/2,3,4,5,{4}6b/2b,
{8}6/2,{4},{8}3,3h[2:1],7,6,5,
4<8[4:1],{4},{8}3,2,1,{4}8-4[8:1]/1-5[8:1],
{8}8/1,{4},{8}2/7,{2}7h[8:3]/2h[8:3],
{8}1/8,{4},{8}7,4/6,3,2/8,{32}1,2/8,3/7,4/6,
{4}5h[1:1],3,{8}2,{4},{8}1,
1pp5[8:3],{4},{8}6,7,8-4[8:1],{4},6b,
6-8[16:1],8v1[8:1],1-3[16:1],
{8}5,4/6,3/7,2/8,{32}1,2,3,4,5,6,7,8,{4}5/1-5[8:1],
1/7-3[8:1],7/2,{8},2/4-8[8:1],3,4/5,
,1/6,7,3/8,4,7/5,8-4[8:1],8,
{4}8/2-6[8:1],2/8,{8},7/5-1[8:1],,5/4,
,8/3,2,1/6,5,2/4,1-5[8:1],1,
{4}1/7-3[8:1],7/1,{8},2/4-1[8:1],3,4/6,
,8/1,{4}1-5[8:1]/8-4[8:1],1>4[8:1]/8<5[8:1],1/8,
{8},3,6,2,7,1-5[8:1],,1/8,
,8b/4b,4b/8b,2b/6b,{4}2b/6b,3-6[8:1]/7-2[8:1],
{2}3/7>4[16:5],5-8[8:1],
{8}1,1,7,7,2,2,{4}2-7[8:1]/6-3[8:1],
{2}2/6<4[16:5],5-8[8:1],
{8}7/3,{16}7/3,2/6,{4}1-4[8:1]/5-8[8:1],{2}5/1,
{8}1/6,1,2/7,2,3/8,3,4/1,4,
8/3,8,7/2,7,6/1,6,5/8,5,
{16}1,2,3,4,8,7,6,5,{32}1,2,3,4,5,6,7,8,1,2,3,4,5,6,7,8,
{2}1h[2:1],{32}8,7,6,5,{8}3b/4b,{4}8b/7b,
{32}1/6h[8:1],2,3,4,{8}5,{32}8/3h[8:1],7,6,5,{8}4,{32}1/7h[8:1],2,3,4,{8}5,8>3[8:1],8,
4-8[8:1],4,7-3[8:1]*-4[8:1],7,{4}7,{8}2v5[8:1],5V31[16:3],
6,7,8-4[8:1]*-5[8:1],8,{4}8,{8}3-1[8:1],1-5[8:1],
,5>1[8:1],6,7,{4}8<5[8:1],{8}2/8-4[8:1],2,
{4}1-3[8:1]/8-6[8:1],8w4[8:1],8,{8}2<7[8:1],2,
5-8[8:1],5,4-1[8:1]*-8[8:1],4,{4}4,{8}1/7,2,
3,1/6,2,3,{4}4/5-8[8:1],{8}5/4,1,
,8-5[8:1],1-4[8:1],8,{4}1,{8}8b/3b,{16}2-5[8:1],1,
{8}3,2,{16}7-4[8:1],8,6,1,{8}7,2,5/1-4[8:1],1/5,
,6,7,8,{16}3h[8:1]/1h[8:1],{8},{16}8h[8:1]/6h[8:1],{8},4/5,
2/7,{16}1-5[8:1],8,2,7,{8}1,6,7,4/8-5[8:1],8/4,
,2,,1/5h[2:1],{32}1,8,7,6,,4,3,2,1,8,7,6,,4,3,2,
{8}1b/6b,{16}7-4[8:1],8,{8}6,1,2-5[8:1],{16}3,1,{8}2,8,
{16}7-3[16:1],{8},{16}7/1-5[16:1],{8},1/8,,8/4,7/3,6/2,
{24}1/5,2,3,4,5,6,7/3,8,1,2,3,4,5/1,2,3,4,5,6,7/3,8,1,2,3,4,
{8}1/5,2b/6b,2b/6b,3b/7b,7b/3b,4b/8b,4b/8b,5b/1b,
5/1-5[8:1],{4},{8}4,3,2,{4}1,
{16}8/7,{8},{16}4/5,{8},2/1-5[8:1],,{16}8,7,{4}6b<3[1:4],
{8}4,{16}5,5,{8}4,5,{16}1h[8:1],{8},{16}8h[8:1],{8},1,
{16}5,5,4,4,{8}5,4,{16}8h[8:1],{8},{16}1h[8:1],{8},8,
4,5,4,5,{16}1h[8:1],{8},{16}8h[8:1],{8},1,
{16}5,5,4,4,5,5,{8}4,{2}1h[8:1],
7p4[4:3],2,
3q5[4:3],7,
8qq4[4:3],3,
{8}1-5[8:1],{4},{8}7,6/4,3,2/8,{32}1,8/2,7/3,6/4,
{4}5h[1:1],2,{8}1,{4},{8}2,
2h[8:5],{4},{8}5,6,7-3[8:1],{4},5b,
8-5[8:1],{8}1p4[8:1],{4},{8}6,
7/5,5/7,8/4,4/8,{32}4,5,6,7,8,1,2,3,{4}8/4>1[32:3],
{32}8/4<8[8:1],7,6,5,{8},{32}4/1,2,3,4,{4},{8}8,{4}8<4[8:1],
{8}2,2V46[8:1],,7-3[8:1],,7,8<5[32:3],2,
{32}8/4<8[8:1],3,2,1,{8},{32}1/4,2,3,4,{4},{8}8h[8:1],2h[8:1],4h[4:1],
,5h[4:1],8b,8b,7/3,6/2,5/1>4[32:3],8/4,
{32}1/5>1[8:1],6,7,8,{8},{32}5/8,7,6,5,{4},{8}8-4[8:1],,6,
6,6-3[8:1],,1,{4}1-5[8:1],1,
{8},4,3/5,3/5,2/6,2/6,1/7,1/7,
{4}8b<5[8:1]*>3[8:1],8bw4[8:1],8b,2-5[8:1]/6-1[8:1],
6/2<6[16:5],4-8[8:1],4pp8[16:13],8,
{8}2,2,6,6,4,4,{4}7-4[8:1]/3-8[8:1],
3/7>3[16:5],5-1[8:1],5qq1[16:13],1,
7b,6b,5b,{8}2b-5[8:1]/6b-1[8:1],2b/6b,
{4}6/2<6[16:5],4-8[8:1],4pp8[16:13],8,
2,{8}4,4,{4}4,{8}7/3,6/2,
{24}1,5,1,5,1,5,1,5,1,5,1,5,1,5,1,5,1,5,1-4[2:1],5,1,5,1,5,
{8}1b,{2},{8}3b/7b,{4}1b>4[8:1]/5b<8[8:1],
1-6[8:1]/5-2[8:1],1>4[8:1]/5<8[8:1],1/5,{8}1<6[16:1],4,
3,2,1/5>2[16:1],8,{4}7,{8}1/6-2[16:1],2,
3,4,5/1>4[16:1],6,{4}7,{8}8/3<6[16:1],3/8,
,7,8,1,{4}2/6,{8}8-4[8:1],4,
{4}8<5[8:1]*>3[8:1],8w4[8:1],8,{8}6/2,2,
1/6,1,6/8,8,{4}6/7>2[6:1],{8}7,6<3[24:5],
5,6,5-8[8:1],4,{4}5/1-4[8:1],{8}1,8,
,2-6[8:1],8-4[8:1],2,{4}8,{8}1b/5b,{16}2,4,
{8}3,3,{16}5,4,6,5,{8}7h[8:1],5,4/8-5[8:1],4/8,
,3,2,1,{16}8h[8:1]/7h[8:1],{8},{16}5h[8:1]/3h[8:1],{8},2h[16:1]/1h[16:1],
5/6,7,{16}4,6,3,5,{8}2h[8:1],4,5/1-4[8:1],1/5,
,8,{4}8<1[32:7],{32}4,3,2,1,{8},{32}8,7,6,5,{8}4h[8:1],
1b,1,2/5,2,3/6,3,4/7,4,
{16}8h[8:1]/5h[8:1],{8},{16}4h[8:1]/1h[8:1],{8},7/6,,4/5,3/7,2/6,
{24}1/5,2,3,4,5,6,7/3,8,1,2,3,4,5/1,2,3,4,5,6,7/3,8,1,2,3,4,
{8}1/5,2b/6b,2b/6b,3b/7b,7b/3b,4b/8b,4b/8b,5b/1b,
5/1-5[8:1],{4},{8}4,3,2,{4}1,
{16}8/6,{8},{16}5/4,{8},1/3>1[8:1],,{16}8,7,{4}6b,
{8}2/5,{16}3,4<1[4:1],{4},{16}1,2,3,4,{4}5h[4:1],
{8}7,{16}6,5>8[4:1],{4},{16}8,7,6,5,{4}4h[4:1],
{8}1,{16}1/5,2/6,{4}3/7,{16}8,4,7,5,{4}6h[4:1],
{16}2,{8},{16}1/5,{4}1/5,{16}2,4,2,4,{4}3h[8:1],
{16}3,4,3,4,2,5,2,5,3b,4b,2b,5b,{4}1b,
{16}7,8,7,8,6,5,6,5,6b,5b,7b,4b,{4}8b,
{8}6/2-6[8:1],2,7-3[8:1],8-4[8:1],7<4[8:1],8,{4}7,
{8}8/3-6[8:1],3,7<4[8:1],8-4[8:1],7-3[8:1],8,{4}7,
2b/6b,{16}1/5,2,3,4,5/8,7,6,5,4/8-4[8:1],1,2,3,
{4}4/8,{8}2-4[8:1],4-8[8:1],2,7-3[8:1],6,7-1[8:1],
1-5[8:1],7,3,3h[8:3],,,,7<4[8:1]/3>8[8:1],
,3q7[8:1]/7q3[8:1],,7/3,,8h[8:1],2h[8:1],4h[8:1],
{4}6b,{16}7/3,8/4,1/5,2/6,{8}7/3-6[8:1],3,8-5[8:1],8,
4-1[8:1],4,6,6,{16}6/2,7/3,8/4,1/5,{4}2h[4:1]/6h[4:1],
{8},7,1/5,2,8/4,6,1/5,3h[16:3],
,{16}3/7,4/8,{4}5/1h[8:3],{8},3h[8:1],4h[16:7],5h[16:5],
{4},4-8[8:1]/5-1[8:1],5/4,{32}1b/8b,7/2,6/3,5/4,{8},{1}7/2-6[2:3],
,7-3[1:1],
{16}8,{8},{16}8,{8},8,{32}3,4,5,6,7,8,1,2,{4}3/7,
{8}4/8<5[8:1],4,3/8-4[8:1],3,{4}8/2-6[8:1],{8}2/6,8w4[8:1],
,8,,7/1,{4},4/8-4[8:1],
1V75[8:1],2-6[8:1],7-3[8:1],{8}1V35[8:1],1,
{4}4-8[8:1],{8}7,7V53[8:1],,8h[4:1],{4},{24}3,
7,3,7,3,7,3,7,3,7,3,7,3,7,3,7,3,7,3,7,3,7,3,7,
{8}3b,{2},{8}2b/6b,{4}4b/8b,
1-5[8:1]/7-5[8:1],1/7-3[8:1],7/3,{8}1>4[8:1],5,
1,7,1<6[8:1],5,{4}1,{8}8>3[8:1],8,
4<7[8:1],4,1-5[8:1],1,{4}8-4[8:1],{8}8/3,3,
,3-8[8:1],7-4[8:1],3,{4}7,{8}1-3[8:1]/5-7[8:1],8/4,
{4}1-5[8:1]/5-1[8:1],5<8[8:1]/1>4[8:1],5/1,{8}1<6[8:1],2,
3,4>1[8:1],5,6,{4}7<4[8:1],{8}2-6[8:1],2,
1-5[8:1],1,8-4[8:1],8,{4}7-3[8:1],{8}7,2,
,1b/5b,1b/5b,3b/7b,{4}3b/7b,{8}2b/5b,{16}3,4,
{8}3,5/2,{16}3-8[8:1],4,3,4,{8}3,5,6/1-4[8:1],1/6,
,7,8/1-5[16:1],2,{16}1/8-4[16:1],{8},{16}8/2-5[16:1],{8},2,
6,7/4,{16}3-6[8:1],8,3,8,{8}3,7,4/8-5[8:1],4/8,
,1,,2,{32}2/8h[16:7],3,4,5,6,7,,1,2,3,4,5,6,7,,1,
{8}2b/6b,2,3/7,7,4/8,4,1/5,1,
{32}1-5[16:1],8,7,6,{16}5,1>5[16:1],{8},1,,6/2,3/7,8/4,
{24}5/1,2,3,4,5,6,7/3,8,1,2,3,4,5/1,8,7,6,5,4,3/7,2,1,8,7,6,
{8}5/1,4b/8b,4b/8b,3b/7b,7b/3b,2b/6b,2b/6b,1b/5b,
5/1-5[8:1],{4},{8}8,7,6,{4}5,
{16}2/4,{8},{16}1/8,{8},7/5,,{16}1/8,7/2,{4}6b/3b,
{8}2b/8b,{16}1,1,{8}1,2/8,{16}1,1,1-4[8:1],1,1,1,{8}1,
,8,7,6,{16}4h[8:1]/5h[8:1],{8},{16}1h[8:1]/8h[8:1],{8},3/6,
1/7,{16}8,8,{8}8,1/7,{16}8,8,8p4[8:1]*q4[8:1],8,8,8,{8}8,
,6/2,,7/8,{32}8b/7b,6/1,5/2,4/3,{8},{32}1b/8b,7/2,6/3,5/4,{8},2/8,
{16}1,1,{8}1,2/8,{16}1,1,1V35[8:1]*V75[8:1],1,1,1,{8}1,
,3/7,8/2,1,{16}2h[8:1]/8h[8:1],{8},{16}3h[8:1]/7h[8:1],{8},4/6,
{32}5b,6,7,8,1,2,3,4,5,6,7,8,1,2,3,4,5,6,7,8,1,2,3,4,5,6,7,8,1,2,3,4,
{8}5/1,7b/3b,8b/1b,6b/4b,7b/2b,5b/3b,1b/6b,8b/4b,
2/5<8[8:1],{4},{8}1,2,3,{4}4,
{16}1/3,{8},{16}8/6,{8},4/5,,{16}1b/8b,{32}1b/8b,7b/2b,{4}6b/3b,
{16},,,,,,,7/2-7[32:1]*-7[32:1],
E
