&title=You are the Miserable
&artist=t+pazolite
&first=0.085
&des=Dragrowl
&lv_5=14
&inote_5=(163)
{2},,1b-5[8:4],,8-4[8:4],,1pp1[8:4],,8qq8[8:4],,4xq5[8:8],,Ch[1:1],,5xp4[8:8],,Ch[4:3],,
{16}2b/7b,,E2,E8,E1,,B3,B6,B4,B5,E4,E6,C,,6x,,5b/7b,,E8,E2,E1,,B6,B3,B5,B4,E6,E4,C,,3x,,4b/2b,,E2,E8,E1,,B3,B6,B4,B5,E4,E6,C,,
{16}1b/8b,,2b/7b,,5,1,5,2,6,3,7,4,8,3,7,2,6,1,5bx,,,,,,,,,,,,,,1b/8b,,2b/7b,,,,,,,,,,,,,,4b/5b,,3b/6b,,2,4,2,,3b/6b,,7,5,7,,2b/7b,,1,8,1,8,1,8,1,8,1x,8x,2x,7x,3x,6x,4x,5x,,,
{16}3/4h[16:2],,,3,4,,3,,3/4h[16:2],,,3,4,,3,,3/4h[16:2],,,3,4,,3,,3h[24:3]/4h[24:3],,,,
{32}E4,B4,B5,E6,,,,,
{16}6x/5xh[16:2],,,6x,5x,,6,,6/5h[16:2],,,6,5,,6,,6/5h[16:2],,,6,5,,6,,6h[24:1]/5h[24:1],,,4x/5x,4x/5x,,,,
{16}4/5,,4,5,4x,,5,4,5x,,4,5,3x,,5,4,6x,,3,4,2x,,6,5,7x,,3,4,1x,,6,5,8bz4[2:1],,,,,,,,
{4},,
{8}1x-3[32:3],1x-7[32:3],1x-4[32:3],1x-6[32:3],1x-5b[8:1],1x,1x,,
{8}1x/6x,2,3/8,7,1/6,2,3/8,7,
{24}1/6,,,2,,,3/8,,,7,,,1/6,,,2,3,4,5/8,,,7,,,
{8}1/6,2,3/8,7,1/6,2,3/8,7,
{8}1/6,2,3/8,7,
{16}1,7,4,5,3,6,2,8,
{8}1x-5[8:1],6,1/7-4[8:1],8,3-6[8:1]/7,2,3/7-3[8:1],8,
{8}1-4[8:1]/7,2,1/6-4[8:1],7,3-7[8:1]/6,2,3/5-8[8:1],6,
{8}2-6[8:1]/5,1,2/7-3[8:1],8,1-5[8:1]/7,2,1/8-4[8:1],7,
{8}2/8,,,,
{8}2b/7b,3b/6b,4x/5x,3b/6b,
3x/4x,2,5/6,A8/B8/E1/E8/D1/D8,3/4,2,5/6,7,3/4,2,5/6,A8/B8/E1/E8/D1/D8,3/4,
{16}7,6,5,,2x,,
{8}7x/8x,6,1/2,A4/B4/E5/E4/D5/D4,7/8,6,1/2,3,7/8,6,1/2,A4/B4/E5/E4/D5/D4,
{16}7,6,5,4,1,2,3,4,
{8}8x-4[8:1],7,6,5-1[8:1],
{8}4,3,2-6[8:1],1,8,7-3[8:1],6,5,
{8}4h[4:1],,
{8},,5-1[8:1],6,7,8-4[8:1],
{8}1,2,3-7[8:1],4,5,6-2[8:1],7,8,
{8}1,2,3/8z4b[8:1]*<1[4:6],,
{1}8b/Cf,,
{16}B1,,,B2,,,B3,,B8,,,B7,,,B6,,B4/B5,,,B3/B6,,,E3/E7,,
{16}E2/E8,,B1,B5,B2,B6,B3,B7,
{16}1,,,2,,,3,,8,,,7,,,6,,4h/5h,,,3h/6h,,,2h/7h,,3h/6h,,3,4,2,,,,
{16}8,,,7,,,6,,1,,,2,,,3,,3h/6h,,5,7,,4,6,,1,3,2,4,3,5,4,6,5b,,,,,,
{8}3,3x/4x,,,6,5x/6x,,,4,5x/4x,
{16}2,3,2,,
{8},2x/5x,,,1,1x/2x,,,8,7x/8x,,,5,4x/5x,
{16}7,6,7,5,8,4,1bx,,
{8},,1,1x/2x,,,7,7x/8x,,,4,5x/4x,
{16}3,2,3,,
{8},3b/8b,,,4,4x/5x,,,4,3x/4x,,,5,4x/5x,
{16}3,4,2,5,1,6,8bx,,,,
{4}1,1,1,1,1,1,1,1b/Ch[2:2],1,1,1,1,1,
{8}1b,2b,3b,4b,
{16}3b,4,2x,,6b,5,7x,,2b,1,3x,,7b,8,6x,,7,7,7,,6,8,6,,1,5,1,,4,2,4,,3,5,2,,6,1,7,,1,2,3,4,5,6,7,8,1b,,
{8},,,1h[16:3]/8h[16:3],,,,
{12}2/7,,3h/6h,,3,4,2/5,,2h/5h,,6,5,7/4,,7h/4h,,3,4,2/5,,2h/5h,,3/6,,
{12}E3/E6,,B2/B5,,B3,B4,E2/E5,,B7/B4,,B6,B5,E7/E4,,B2/E5,,B3,B4,2x,5,3,3bx,5,6,
{12}2/7,,3h/6h,,3,4,2/5,,2h/5h,,6,5,7/4,,7h/4h,,3,4,2/5,,2h/5h,,3/6,,
{12}E2/E7,,E3/E6,,B3,B4,B2/B5,,E2/E5,,1,4,1,4,2,5,3,6,
{8}4b,5b,4b,5b,
{16}4-1[24:1],,4,5,4,,,,1x-4[24:1],,1,8,1,,7x,4x,7x,,
{64}4,,E4,B3,B2,E2,,,7bh[1:0],,,,,,,1,,E2,B2,B3,E4,,,,7bh[1:0],,,,,,,4,,E4,B3,B2,E2,,,,7bh[1:0],,,,,,,1,,E2,B2,B3,E4,,,,
{16}6-1[24:1],,6,5,6,,,,1x-6[24:1],,1,2,1,,4x,6x,4x,,
{64}6,,E7,B7,B8,E1,,,4bh[1:0],,,,,,,1,,E1,B8,B7,E7,,,,4bh[1:0],,,,,,,6,,E7,B7,B8,E1,,,,4bh[1:0],,,,,,,,,,,,,,,,
{4}8-5[16:7]/4,4,4,4,4-1[16:7]/5,5,5,6,
{8}Ch[8:3]/1,1,1,1,
{16}1,8,3,6,2,7,4,5,
{8}4-2[16:1],5-7[16:1],4,5,1x/8x,2x/7x,
{32}1b/8b,2/7,3/6,4/5,,,,,
{16}2b,,2-6-4[4:1],1,,1,2,,7b,,7v5[8:1],5q1[8:1],,5,7,,2b,,2-8-3[4:1],8,,8,2,,7,,5,6,1b/7b,,,,
{16}6b,,6V83[4:1],5,,5,6,,2b,,2v4p8[8:1],4p8[8:1],,4,2,,7b,,7-4-6-1[4:1],1,,1,7,,3b,,3,4,5,6,7,8,1,
{16},1-5-3-8[4:1],7,,7,1,,6b,,6-2-5-1[4:1],2,,2,6,,3b,,3-5-2>4[16:5],8,,8,3,,8,,7x,6x,5,,
{16},,2b,,2,3,,3,4,,7b,,7,6,,6,5,,
{8}4-2[16:1],5-7[16:1],4,5,1x-6>5[12:1]/8x-3<4[12:1],2x/7x,
{48}1b/8b,,,,,,,,,,,,
{16}1bx/8bx,,2,1,2,,8,,2-5[8:1],1,3,1,2x,,,,1x/8x,,7,8,7,,1,,7-4[8:1],8,6,8,7x,,,,
3,4,2,4,1,,D2,A2,D3,,D4,,A4,,,,
8,4,7,4,6,,D7,A7,D8,,D1,,A1,,,,
2x-6[8:1],8,3,4,2b,,,,7x<4[8:1],8,6,5,7b,,,,
2x>5[8:1],5,3,1,2b,,,,7x-3[8:1],1,5,3,7b,,,,
1x,2x,8x,7x,1x,2x,8x,7x,2x,3x,7x,6x,3x,4x,6x,5x,
{24}1,2,3,8,7,6,2,3,4,7x,6x,5x,
{16}1x,2x,3x,4x,5x/1x,6,7,8,1h[8:6]/5h[8:6],,,,,,,,,,,,,,
{48}1/5,,,,,,1/5,E2/E6,B2/B6,B3/B7,E4/E8,,,,,,,,,,,,,,,,,,,,,,,,,,,,,,,,,,,,,,
{16}2/6,,3/7,,
E2,E8,E1,,B3,B6,B4,B5,E4,E6,C,,
2/7,,3/6,,
{16}4,5,3,6,2,7,1,8,2,7,3,6,4,5,3b,,,,,,,,,,,,,,
4b/5b,,2b/7b,,,,,,,,,,,,,,
2x/7x,,1x/8x,,2,1,2,,1/8,,7,8,7,,8b,,8b,,8b,,1,2,3b/7b,,8,7,6b/2b,,2,3,4b/8b,,7,6,5bh[16:15]/1bh[16:15],,,,,,,,,,,,,,,,
{32}2/6,3/7,4/8,5,6,7,8,1,2,3,4,5,6,7,8,1,2,3,4,5,6,7,8,1,2,3,4,5,6,7,8,1b,
E
