&title=【ん】いっしそう電☆舞舞神拳!
&artist=さつき が てんこもり feat. YURiCa/花たん
&first=0
&des=14.1514
&lv_7=14?
&inote_7=(185.0){1},
{16}1,,,,1,,,,4,,5,,1b/4b,,,,
1,,,,1,,,,4,,5,,1b/4b,,,,
{8}5/4h[8:1],,5/4h[8:1],,5/4h[8:1],,5/4h[8:1],,
{8}5/4h[8:1],,5/4h[8:1],,5/4h[8:1],,1b/4b,,
{8}4/5h[8:1],,4/5h[8:1],,4/5h[8:1],,4/5h[8:1],,
{8}4/5h[8:1],,4/5h[8:1],,4/5h[8:1],,1b/5b,,
{8}1h[8:1]/4,,1h[8:1]/5,,1h[8:1]/4,,1h[8:1]/5,,
{8}1h[8:1]/4,,1h[8:1]/5,,1h[8:1]/4,,15,4,
{8}5h[4:1]/4,,1,14,,45,45,,
{8}4,15,4,15,,1b,4b-1[8:1]/5b-8[8:1],,
{8}4b/5b,,4/5,1/5,,1-3[8:1]/4-8[8:1],,14,
{8},45,1>4[8:1]/5<8[8:1],,1b/5b,,,,
{8}1,,1,,4,5,1,4,
{16}1,,1,,4,,5,,1,,4,,1,,45,,
{16}1,,1,,4,,5,,1,,4,,1,,15,,
{16}1,1,4,,5,,14,,1,,45,,1,,4,,
{16}1,1,4,,5,,14,,1,,45,,1,,4,,
{16}15,,,45,,,14,,45,,,15,,,1bs5[16:6]/4b,,
{4},,,1b/4,
{8}1b,1b,4b,5b,1b-4[8:1],,4b-1[8:1],,
{8}1-5[8:1],,5-8[8:1]*-2[8:1],,,,45,5,
{8}1>4[8:1],1,5<8[8:1],,1-5[8:1],1,4-8[8:1],,
{4},45,1p4[8:1]/5<8[8:1],,
{16}1b,,1b,,4b,,5b,,1b,,,,4b,,1,4,
{16}1,4,1,,1,5,1,5,1,,,,45,,1,1,
{16}4,,5,1,4,,1,1,4,,5,1,4,,15,,
{8}1,1,45,1b-3[8:1]/4b-7[8:1],,,,,
{8}5h[4:6]/1>4[8:1],,,,1,1,4,,
{8}4>1[8:1],,,,4h[8:1],,5,,
{8}5h[4:3]/1<6[8:1],,,,4,4,1,,
{8}5<8[8:1],5,1>4[8:1],,5h[8:1],,1,,
{8}4-7[8:1]/1h[4:1],,4,1,,45,45,45,
{16}5bpp5[16:3]/1h[16:6],,,5bqq5[16:3],,,,,,,,,1,,1,,
{4}4-8[8:1]/1,45,{8}5-1[8:1],5,45,,
{8}4,5,1,5,4,5,1,5,
{16}4b,5,4,5,1,5,4,5,4,5,4,5,1,5,4,5,
{16}1b,1,1,1,1b,1,1,1,4>5[8:1],,,,{4}5b,
{8}1v4[8:1],4v7[8:1],1,,5v2[8:1]*v8[8:1],,5,,
{8}5b-1[8:1]/4b,,4bqq3[4:1]*pp5[4:1]/5b,,,,,4,
{8}5<8[8:1],,1-6[8:1],1,1-4[8:1],5,1<6[8:1],5,
{8}1pp4[4:2],5pp8[8:3],,,,,,,
{8}4h[8:1],5,4h[8:1],1,4h[8:1],5,4h[8:1],1,
{8}1h[8:1],4,1h[8:1],5,1h[8:1],4,1h[8:1],5,
{8}1V72[8:1]/4V63[8:1],,,,5V74[8:1]*V36[8:1]/4,,,,
{8}1pp1[4:1],1,5pp5[4:1],5,,,,,
{8}1-4[8:1],4p7[8:1],1,,5-2[8:1]*p8[8:1],,5,,
{8}4b-8[8:1]/5b,,5bpp6[4:1]*qq4[4:1]/4b,,,,,5,
{8}4<7[8:1],,1-4[8:1],1,1-6[8:1],5,1>4[8:1],5,
{8}1pp4[4:2],5pp8[8:3],,,,,,,
{8}5h[8:1],1,4h[8:1],1,5h[8:1],1,4h[8:1],1,
{8}5h[8:1],4,1h[8:1],4,5h[8:1],4,1h[8:1],4,
{8}5V73[8:1]/1-3[12:1],15,,,1v7[8:1]*<4[8:1]/4,14,,,
{8}1,5,1-7[12:1]/4-8[8:1],,1b/4b,,1b/5b,,
{8}5/4h[8:1],,1/4h[8:1],,5/4h[8:1],,1/4h[8:1],,
{8}5/4h[8:1],,1/4h[8:1],,5/4h[8:1],,1b/4b,,
{8}4/5h[8:1],,1/5h[8:1],,4/5h[8:1],,1/5h[8:1],,
{8}4/5h[8:1],,1/5h[8:1],,4/5h[8:1],,1b/5b,,
{8}1h[8:1]/4,,5h[8:1]/4,,1h[8:1]/4,,5h[8:1]/4,,
{8}1h[8:1]/4,,5h[8:1]/4,,1h[8:1]/4,,15,4,
{8}1>4[8:1],,14,5<8[8:1],,15,4,,
{8}5-8[8:1],1-4[8:1],5,1,,1b,1b>4[8:1]/5b<8[8:1],,
{8}1b/5b,,15,1/5,,4>1[8:1]/5<8[8:1],,45,
{8},45,1q5[8:1]/5q1[8:1],,1b/5b,,,,
{8}5h[4:8]/1-6[8:1],,,,1,1,4,,
{8}4-8[8:1],,,,1,1,4,4-7[8:1],
{8}1h[4:8],,,,4,4,5,,
{8}5-2[8:1],5,,,4,4,5,,
{8}4-1[8:1],,4/5,5-8[8:1],,45,1,1,
{16}5bpp5[16:3]/1h[16:6],,,5bqq5[16:3],,,,,,,,,1,,1,,
{4}4q8[8:1],14,{8}5q1[8:1],4,15,,
{8}4,5,1,5,4,5,1,5,
{16}4b,5,4,5,1,5,4,5,4,5,4,5,1,5,4,5,
{16}1b-3[12:1],,5b-7[12:1],,1bv4[8:1],,5bv8[8:1],,1b>3[12:1],,5b,,1b,,,,
{8}4v1[8:1],1,4v7[8:1],5,5v2[8:1]*v8[8:1]/4,,5,,
{8}5b-1[8:1]/4b,,4bqq3[4:1]*pp5[4:1]/5b,,,,,4,
{8}5/1-6[8:1],,4v6[8:1]/1,5,1-3[8:1]/4,,4-8[8:1]/1,5,
{8}1pp5[4:2],1qq5[8:3],,,,,,,
{8}1h[8:1]/5,,4/5h[8:1],,1h[8:1]/5,,4/5h[8:1],,
{8}1h[8:1]/4h[8:1],,4h[8:1]/5h[8:1],,1h[8:1]/4h[8:1],,4h[8:1]/5h[8:1],,
{8}5b>1[8:1]*<1[8:1]/4b,,,,4h[8:2]/5h[8:2],,,1b,
{8}1b,4b,5b,1b,4b,,15,,
{8}4-1[8:1],1,4p7[8:1],5,5-2[8:1]*p8[8:1]/4,,5,,
{8}4b-8[8:1]/5b,,5bpp6[4:1]*qq4[4:1]/4b,,,,,5,
{8}4/1-4[8:1],,4v2[8:1]/1,5,1-6[8:1],,4-8[8:1]/1,5,
{8}1pp4[4:2],1qq6[8:3],,,,,,,
{8}1h[8:1]/5,,4/5h[8:1],,1h[8:1]/5,,4/5h[8:1],,
{8}1h[8:1]/4h[8:1],,4h[8:1]/5h[8:1],,1h[8:1]/4h[8:1],,4h[8:1]/5h[8:1],,
{4}1bq5[8:1]/5,1b-6[8:1]/5,4b-8[8:1]/1,5b<8[8:1]/4,
{4}1b-5[8:1]/5,4bw8[4:1]/1,,,
{8}5/4h[8:1],,1/5h[8:1],,5/4h[8:1],,1/5h[8:1],,
{8}5/4h[8:1],,1/5h[8:1],,5/4h[8:1],,1b/4b,,
{8}4/5h[8:1],,1/4h[8:1],,4/5h[8:1],,1/4h[8:1],,
{8}4/5h[8:1],,1/4h[8:1],,4/5h[8:1],,1b/5b,,
{8}1h[8:1]/4,,5h[8:1]/4,,1h[8:1]/4,,5h[8:1]/4,,
{8}1h[8:1]/4,,5h[8:1]/4,,1h[8:1]/4,,15,{16}4,4,
{8}1<6[8:1],,14,5q1[8:1],,15,4,,
{8}1b-4[8:1],5b-8[8:1],1b,5b,,1b,4bw8[8:1],,
{8}4b,,4/5,15,,1-3[8:1]/4-8[8:1],,14,
{8},45,4>2[8:1]/5<7[8:1],,4b-8[8:1]/5b-1[8:1],,4b/5b,,
{8}45,,14,45,,1q6[8:1]/5q2[8:1],,15,
{8},15,1p4[8:1]/5p8[8:1],,1b/5b,,,,
{8},,,,,{24}4,5,4,{8}5,14,
{8},4/5,1bV36[8:1]/5bV72[8:1],,1b/5b,,
E
