&title=Our garden is blue.
&artist=庭師+Aoi
&first=0
&des=僕たちの庭は青い
&clock_count=4
&lv_5=14+
&inote_5=(100){1},
{2},{16},,,E7,E6,E5,E4,E3,
{1}8xqq3[4:3]/1hx[4:7],
{4},E3,E7,{48}C,,,,,,,,,2x,3x,4x,
{1}5xqq7[4:3]/6hx[4:7],
{4},E7,E1,E3,
{16}5b/7b,5,6,6,4,4,5x,5,3,3,4x,4,1x,1,28,,
7x,7,5,5,6,6,3x,3,4,4,2x,2,8x,8,71,,
3hx[8:1],4,4,2,5,4,6hx[8:1],5,5,7,1x,8,2x/7,2,8,8,
{32}1,7,1,7,1,7,1,7,2q8[4:1],8,2,8,2,8,2,8,{4}2hx[8:1],1w5[16:1],
{1}1b>8[1:1]`Cf,
{16}2hx[8:3],,,,,,1,1,,37,37,,{8}5/6<1[16:1],34,
{4}6b/2h[4:1],1>4[16:1],1b/7h[4:1],5-2[16:1],
5b/8-4[16:1],8b/3h[4:1],{48}1w5[16:1],2,1,2,1,2,1,,,,,,{4}1x,
{16}7h[4:1]/4-1[4:1],,5,5,,,6,,{64}8x,B8,{32},,,,,3,4,3,,2,,1,,8,,
{16}7h[8:1]/1>4[4:1],,8,8/7h[8:1],,,6,7,{64}8x,B8,,,{16},,5,64,7,8,1,
{16}2h[4:1]/5-8[4:1],,4,4,,,3,,{64}1x,B1,{32},,,,,6,5,7x,,6,,4,,3,,
{16}2h[8:1]/8<5[16:3],,1,1/2h[8:1],,,3,3,2x-6[16:1]/4x,24,,1,28,8,7h[8:1],,
5b>2[16:1],,6,6,5,8,8,1,7p3[16:1],7,1,1,7,8,1,2,
4V68[32:3]/3,,2,2,4,3,1,2,8<5[16:1],{32}2,1,{16}2q6[16:1],3,8,,2,,
7x/8x-4[16:1],,,5,68,7,8,1,2-5[16:1]/5,4,3,4,2-6[16:1],8h[8:1],,1,
{8}2/7<4[16:1],8,7/1pp6[16:5],2<5[4:1],,,,,
{32}3b>1[64:3]/4b,,,,4,5,4,5,3x,,7,8,7,8,7,8,6h[8:1],,,4,,,3,,8/2x-6[16:1],,1,,8,,1,,
2/7<5[64:3],,,,8,1,8,1,7x,,3,4,3,4,3,4,2h[8:1],,,1,,,8,,{48}7x<4[16:1],8x,7x,{32},,3,,2,,
7/1h[8:1],,,,3,1,3,1,4x,5,6,7,1,2,3,4,8h[8:1]/5>2[8:1],,,,2v5[32:3],,,6,5xp1[32:3],,,,8,,,,
6h[16:1],,,,7,8,7,8,6xV47-3[16:5],,5,,4,,3,,2hx[16:1],,,,1x-5[16:1],,,,8hx[16:1],,,,1x,,,,
3b/7b,,,,4,5,4,5,2,6,2,6,8,7,8,7,1,2,3,4,6,7,8,1,4xq8[16:1],3,2,7x,6,5,1x,2,
3h[8:1]/4x,,,,1,2,1,2,7,3,7,3,8,1,8,1,7,5,6,4,5,3,4,2,8x-4[16:1],7,1x,2,5x,6,4x,3,
2h[32:3]/8x,,,,5,6,7,8,2pp5[16:5],3,4,1,2,3,8,1,2x/7h[12:1],,,,{24}5,6,7,8x<6[64:3],,,1/2hx[8:1],,,
8x-5[16:1],,,2,1,3,8x-4[16:1],,,2,1,3,8x,,,2,1,3,8>2[64:3],7,6,5h[8:1],,,
8x-3[16:1],,,6,5,7,8x-4[16:1],,,6,5,7,8x,,,6,5,7,8V61-5-2-4[32:25],1,2,3>4[16:11],,,
{1},
{96}5hx[8:1],B4,B3,E3,{12},{8},{96}6hx[8:1],B5,B4,E4,{12},{8},{96}7hx[8:1],B6,B5,E5,{12},{32},,4x,5x,{32}1b,8,2,7,3,6,4,5,
2,4,3,5,4,6,5,7,2,8,4,6,1,5,3,7,1-5[16:1],8,2,7,1,8,3,6,1b`Cf,,,,,,{48}4x/5x,3x/6x,2x/7x,
{2}1bx/8bxpp4[4:1],{16},,5h[8:1]/6h[8:1],,,2h[8:1]/4h[8:1],,,
{32}7bp5[4:1]/8,,,1,,,1,,1h[8:1],,,,,,2,,2,,3h[16:1]/4h[16:1],,,,5h[16:1]/6h[16:1],,,,78,,26,,,,
1h[16:3]/8b,,,6,,,4,,5h[16:3]/3<8[8:1],,,,,,2v5[16:1],,2h[8:1],,,,,,2/7x,,8,,1,,24,,3,,
5bqq4[16:3]/6,,,8h[32:3],,,3,4,5x/7,,,,,,6,,57,,4,,38,,2,,1-5[16:1]`E6,,E5,,E4,,,,
1b/8b>3[16:1],,,6,,,6,,6h[16:3]/8,,,,,,5,,47,,8,3,7,2,6,1,5-8[16:1],4,3,2,1,8,7,6,
5/1v6[16:1],,,3,,,3,,3h[16:3]/1,,,,,,4,,25,,1,6,2,7,3,8,4,5,6,7,8,1,2-8[64:3],3,
4h[32:3]/8-3[16:1],,,6,,,26,,5h[32:3],,,,5x,6,7-5[64:3],8,1h[32:3]/5-1[16:1],,,3,,,37,,2h[32:3],,,,2x,3,4,5,
6h[32:3]/8pp5[4:1],,,7h[32:3],,,2,1,8x/5>6[4:1],,,,7,,,,6-8-2-4[16:3],,,,,,,,Cf,,,,,,,,
5bxv8[16:1]/6h[16:1],,,,1v4[16:1]/2h[16:1],,,,5,,,,1,,,,5v2[16:1]/3h[16:1],,,,1v6[16:1]/7h[16:1],,,,5,,,,1,,,,
4h[16:1],,5,3,6,2,7,1,8,7,6,5,1,2,3,4,{48}8,1,2,3,4,5,7,8,1,2,3,4,6,7,8,1,2,3,5,6,7,8,1,2,
{32}3h[16:1]/4V25[32:3],,,,7h[16:1]/8-4[16:1],,,,4,,,,8,,,,5h[16:1]/6V47[32:3],,,,1h[16:1]/2-6[16:1],,,,6,,,,2,,,,
{48}7h[8:1]/8x,,,,,,5,,5,,5,,4,,4,,4,,3,,3,,3,,2,1,8,7,6,5,3v8[16:1],2,1,8,7,6,4,3,2,1,8,7,6/3b,,,,,,
{16}1x/7x,,2h[8:1]/8,,1,8-4[16:1]/3,4-8[16:1]/7,56,3h[4:1],,,,{48}7xqq4[6:1],6,5,4,3,2,7,6,5,4,3,2,
1h[16:3],,,,,,,,,5x,2x/6x,3x/7x,{8}8x-4[16:1]/4x,5>7[16:3]/6,7h[8:1]/8,,{16}6,5,4,3,
{32}12,,6,5,7h[16:1],,5,6,4,6,4h[16:1],,5,3,2h[8:1]/4-8[16:1],,,,5h[16:1],,3,6,4,,7h[8:1],,1x,2,3,5,6,7,
1b/8b,,2,4,3h[16:1],,5h[16:1],,4,5,4v7[16:1],5,3,,2<5[8:1],,5,,34,,,,8h[8:1]/2,,,,,,7x,,46,,
{24}5b/2,2,2,3,3,3,2,2,2,3v8[16:1],3,3,{48}1,8,7,6,5,4,3x/7h[8:1],,,,,,{32}1b,,,5b/6b,,,8b/4b,,
{32}2bh[64:1],1h[64:1],3h[64:1],8h[64:1],5p1[16:1],6h[64:1],4h[64:1],7h[64:1],{48}3,2,1,8,7,6,5x/7hx[16:1],,,,,,{32}7h[64:1],8h[64:1],6h[64:1],1h[64:1],4q8[16:1],3h[64:1],5h[64:1],2h[64:1],{48}6,7,8,1,2,3,4x/1hx[16:1],,,,,,
{48}2,3,4,8,7,6,l1,8,7,4,5,6,78,1,2,3,4,5,7h[32:1],,,7h[32:1],,,{64}1,2,3,4,8,,8,,6,5,4,3,7,,7,,2pp5[4:3],1,8,7,6,5,4,3,27,6,5,4,3,2,1,8,
{1}7b-5<1[8:5]/2b,
{8}4h[2:1],,E8,E7,5h[2:1],,E7,E6,
3h[2:1],,E8,E7,{16}5,4,5h[4:3]/3,,,,{24}E2,E3,E4,{8}E5,,,,
{96},5hx[8:1],B4,B3,E3,{12},{8},{96}6hx[8:1],B5,B4,E4,{12},{8},
(77){96}7hx[8:1],B6,B5,E5,{12},{8},{128},{32}1x/8hx[32:15],,,,,,,,,,,,,,,
{48}6,5,4,{128}3q5<8>1>2>3<4<5<6<7[41.7627#25:23],{64},{16},,,{4},
(84.6){1}3h[1:2],,
(100){1}8h[1:1],,E
