&title=藍二乗
&artist=ヨルシカ
&first=0
&des=Dororo
&lv_5=12
&inote_5=(210)
{16}
,,,,,,,,,,,,,,,,
3/4h[1:1],,,,,,,,,,,,,,,,
1-5[1:1],,,,,,,,,,,,,,,,
7-3[1:1],,,,,,,,,,,,,,,,
4,,,,,,,,4,,,,,,,,
6/5h[1:1],,,,,,,,,,,,,,,,
8-4[1:1],,,,,,,,,,,,,,,,
2-6[1:1],,,,,,,,,,,,,,,,
8,,,,,,1,,,,,,2,,,,
3/6-2[2:1],,,,3,,,,3,,,,3,,,,
3/8-4[2:1],,,,3,,,,3,,,,3,,,,
3/2-6[2:1],,,,3,,,,3,,,,3,,,,
3/4-8[2:1],,,,3,,,,3,,,,3,,,,
6/3-7[2:1],,,,6,,,,6,,,,6,,,,
6/1-5[2:1],,,,6,,,,6,,,,6,,,,
6/7-3[2:1],,,,6,,,,6,,,,6,,,,
57,,,,34,,,,28,,,,7b/6b,,,,
3,,3,,4,,2,,5,,5,,4,,6,,
3,,3,,4,,2,,6,,5,,4,,3,,
8,,8,,4,,6,,1,,1,,5,,3,,
8,,8,,4,,6,,2,,4,,5,,7,,
6,,6,,5,,7,,4,,4,,5,,3,,
6,,6,,5,,7,,3,,4,,5,,6,,
3-5[8:1],,,,5,,6,,7-1[8:1],,,,2,,2,,
8,,7,,2,,3,,46,,,,8,1,8,1,
7V51[4:1],,,,37,,,,2,,2,1,2,,2,,
6,,6,,{12}4,5,3,{16}4,,4,,2-4[8:1],,2,,
8,,,,{12}5,4,6,{16}5,,5,,7-5[8:1],,7,,
1,,,,2,,3,,4-1[8:1],,5,,6,,,,
7h[8:1],,8h[8:1],,6h[8:1],,1h[8:1],,5h[8:1],,2h[8:1],,4h[8:1],,3h[8:1],,
5,,,,6,,7,,8-5[8:1],,1,,2,,,,
4b-6[8:1],,,,4,,2b-4[8:1],,,,2,,8b-2[8:1],,,,
8,,6b-8[8:1],,,,6,,4bv1[8:1]*v7[8:1],,,,4b,,,,
2pp5[2:3],,,,7,,,,7,,,,7,,,,
7,,,,7,,,,7,,,,7,,,,
8qq4[2:3],,,,3,,,,3,,,,3,,,,
3,,,,3,,,,3,,,,3,,,,
2-5[2:1],,,,8,,,,8,,,,8,,,,
6-1[2:1],,,,4,,,,4,,,,4,,,,
2^5[8:3],,,,4^7[8:3],,,,6^1[8:3],,,,8^3[8:3],,,,
2>6[3:1],,,,5<1[3:1],,,,8b,,,,,,,,
7qq4[2:3],,,,2,,,,2,,,,2,,,,
2,,,,2,,,,2,,,,2,,,,
1pp5[2:3],,,,6,,,,6,,,,6,,,,
6,,,,6,,,,6,,,,6,,,,
7-4[2:1],,,,1,,,,1,,,,1,,,,
3-8[2:1],,,,5,,,,5,,,,5,,,,
7,,8,,7,,1,,7,,2,,7,,3,,
7-3[8:1],,4,,7b,,,,2,,4,,6,,8,,
1V38[2:1],,,,6,,6h[4:1],,,,,,6,,,,
7p3[4:1],,8,,,,2,,2h[2:1],,,,4,,4,,
4V61[2:1],,,,3,,3h[4:1],,,,,,3,,,,
2-4[8:1],,2,,,,6-8[8:1],,6,,,,1h[4:1],,,,
8V61[2:1],,,,3,,3h[4:1],,,,,,3,,,,
2q6[4:1],,1,,,,7,,7h[2:1],,,,5,,5,,
5V38[2:1],,,,6,,6h[4:1],,,,,,6,,,,
,,18,,,,34,,25,,,,7,8,7,,
6-4[8:1],,1-5[8:1],,6,,1b^4[8:1]*^6[8:1],,,,1bw5[8:1],,,,1b,,
,,3,,4,,5,,3h[8:3]/6h[8:3],,,,,,,,
1>6[4:1],,,,4,,,,8<3[4:1],,,,5,,,,
1-5[8:1],,,,7-3[8:1],,,,2-6[8:1],,,,8-4[8:1],,,,
3-7[8:1],,,,5-1[8:1],,,,4-8[8:1],,,,6-2[8:1],,,,
1>5[4:1],,,,5qq8[8:3],,,,6h[2:1],,,,,,,,
1V72[4:1],,,,7,,,,5V36[4:1],,,,3,,,,
1^4[8:1],,,,1^6[8:1],,,,1-4[8:1],,,,1-6[8:1],,,,
1q4[2:1],,,,,,,,,,,,6,,6b<3[8:3]*q3[8:3],,
,,,,,,,,,,,,7,1,7,1,
8<3[4:1],,,,5,,,,1>6[4:1],,,,4,,,,
8-4[8:1],,,,2-6[8:1],,,,7-3[8:1],,,,1-5[8:1],,,,
6-2[8:1],,,,4-8[8:1],,,,5-1[8:1],,,,3qq2[4:1]*pp4[4:1],,,,
3,,,,,,,,2-5[8:1]/6-1[8:1],,,,26,,,,
8V27[4:1],,,,2,,,,4V63[4:1],,,,6,,,,
8qq4[2:1],,,,,,2,,2>8[1:1],,,,2b,,,,
,,,,1,,,,,,,,1,,,,
,,,,2,,3,,4,,5,,6,,7,,
1bV35[2:1],,,,,,,,,,,,6,,6h[4:1],,
,,7,,7h[4:1],,,,8,,8h[8:3],,,,,,
1b<5[2:1],,,,,,,,,,,,3,,3h[4:1],,
,,4,,4h[4:1],,,,5,,46,,,,,,
8bV64[2:1],,,,,,,,,,,,3,,3h[4:1],,
,,2,,2h[4:1],,,,1,,1h[8:3],,,,,,
8b>4[2:1],,,,,,,,,,,,6,,6h[4:1],,
,,5,,5h[4:1],,,,8,,6,,4,,2,,
1^4[8:1],,,,7,,,,1^6[8:1],,,,3,,3,,
1^4[8:1],,7,,7,,,,1^6[8:1],,,,3,,3,,
8^3[8:1],,,,6,,,,8^5[8:1],,,,2,,2,,
8^3[8:1],,6,,6,,,,8^5[8:1],,,,2,,2,,
1-4[4:1],,,,4-7[4:1],,,,7-2[4:1],,,,2-5[4:1],,,,
5-8[4:1],,,,8-3[4:1],,,,3-6[4:1],,,,6,,7,,
8-5[4:1],,,,5-2[4:1],,,,2-7[4:1],,,,7-4[4:1],,,,
4-1[4:1],,,,1-6[4:1],,,,6-3[4:1],,,,3,,2,,
1,,2b/8b,,,,6,,5b/7b,,,,3,,2b/4b,,
,,7,,8b/6b,,,,4,,3b/5b,,,,1qq1[8:5],,
1bpp1[2:1],,,,,,,,,,,,,,,,
3p6[2:1],,,,,,,,,,,,,,,,
{64}
5,6,,,,,,,,,,,,,,,
,,,,,,,,,,,,,,,,
,,,,,,,,,,,,,,,,
,,,,,,,,,,,,,,,,
4,3,,,,,,,,,,,,,,,
,,,,,,,,,,,,,,,,
{16}
1v8[8:1],,,,,,,,
6-4[8:1],,,,6,,2-5[8:1],,,,2,,8-4[8:1],,1,,
8b,,,,23,,23,,,,57,,57,,,,
{32}
1v4[8:1],2,3,4,5v8[8:1],6,7,8,,,,,,,,,
,,,,,,,,2b/6b,,,,,,,,
{16}
8^5[8:1],,,,8^3[8:1]/2,,,,8-5[8:1]/6,,,,8-3[8:1]/2,,,,
8p5[2:1]/6,,,,,,,,,,,,3,,3b>6[8:3]*p6[8:3],,
,,,,,,,,,,,,2,8,2,8,
1>6[4:1],,,,51,,,,8<3[4:1],,,,84,,,,
1-5[8:1],,,,7-3[8:1]/1,,,,2-6[8:1]/7,,,,8-4[8:1]/2,,,,
3-7[8:1]/8,,,,5-1[8:1]/3,,,,4-8[8:1]/5,,,,6pp7[4:1]*qq5[4:1]/4,,,,
6,,,,,,,,4p8[8:1]/8p4[8:1],,,,48,,,,
1V72[4:1],,,,17,,,,5V36[4:1],,,,53,,,,
1>5[4:1],,,,5<1[4:1],,,,1bv3[8:8],,,,5bv7[8:6],,,,
{16}
,,,,,,,,,,,,,,,,
4,,4,,35,,,,27,,1,8,1,8,1,8,
2-5[8:1]*v4[8:1],,,,2,,,,1-5[8:1],,8,,17,,,,
7-4[8:1]*v5[8:1],,,,7,,,,8-4[8:1],,1,,82,,,,
3h[8:1],,8h[8:1],,5h[8:1],,7h[8:1],,4h[8:1],,1h[8:1],,3h[8:1],,8h[8:1],,
5h[8:1],,7h[8:1],,4h[8:1],,1bqq6[8:3],,,,,,,,,,
4h[8:1],,7h[8:1],,2h[8:1],,8h[8:1],,3h[8:1],,5h[8:1],,2,,2,,
5h[8:1],,2h[8:1],,7h[8:1],,1h[8:1],,6h[8:1],,4h[8:1],,7,,7,,
2-5[8:1],,,,2,,8-5[8:1],,,,8,,1-5[8:1],,,,
1,,,,6h[8:1],,2h[8:1],,4h[8:1],,8h[8:1],,7,1,7,1,
7-3[8:1]*-5[8:1],,,,7,,,,8w4[8:1],,,,8,,,,
2-6[8:1]*-4[8:1],,,,2,,,,1w5[8:1],,,,1,,,,
7bs3[1:4],,,,,,,,,,,,,,,,
,,,,,,,,,,,,,,,,
1h[2:7],,,,,,,,,,,,,,,,
,,,,,,,,,,,,,,,,
,,,,,,,,,,,,,,,,
,,,,,,,,,,,,,,,,
{64}
3bqq5[2:1],6bpp4[2:1],,,,,,,,,,,,,,,
,,,,,,,,,,,,,,,,
,,,,,,,,,,,,,,,,
,,,,,,,,,,,,,,,,
{16}
4bqq4[8:3]/5bpp5[8:3],,,,,,,,,,,,,,,,
6,,6,,54,,7,,4,,4,,56,,3,,
6,,6,,54,,7,,2-6[8:1],,2,,8-4[8:1],,8,,
1,,1,,52,,6,,8,,8,,47,,3,,
1,,1,,52,,6,,2v4[8:1],,8v6[8:1],,2,,8,,
3,,3,,45,,2,,5,,5,,43,,6,,
3,,3,,45,,2,,7-3[8:1],,7,,1-5[8:1],,1,,
6^8[8:1],,,,4,,3,,2^4[8:1],,,,8,,7,,
1,,2,,7,,6,,53,,,,1,8,1,8,
2V48[4:1],,,,62,,,,7,,7,8,7,,61,,
3,,3,,{12}5,4,6,{16}5,,5,,7-5[8:1],,8,,
17,,,,{12}4,5,3,{16}4,,4,,2-4[8:1],,1,,
82,,,,7-1[8:1],,7,,3-5[8:1],,3,,6,,,,
2h[8:1],,1h[8:1],,3h[8:1],,8h[8:1],,4h[8:1],,7h[8:1],,5h[8:1],,6h[8:1],,
4,,,,3^1[8:1],,3,,7^5[8:1],,7,,8,,,,
1b-3[8:1],,,,17,,7b-1[8:1],,,,75,,5b-7[8:1],,,,
53,,3b-5[8:1],,,,31,,1bw5[8:1],,,,1b,,,,
71,,43,,,,82,,65,,,,81,,5h[8:5]/4,,
{32}
,,,,,,,,,,,,,,,3,
,2,,1,,8>6[1:4],,,,,,,,,,,
,,,,,,,,,,,,,,,,
,,,,,,,,,,,,,,,,
{24}
,,,7,8,1b,,,,,,,,,,,,,,,,,,,
{16}
,,,,,,,,,,,,,,,,
,,,,,,,,,,,,,,,,
,,,,,,,,,,,,,,,,
,,,,,,,,,,,,,,,,
E
