&title=mimizuqu
&artist=sasakure.UK feat.ダズビー
&first=0
&des=ネギチャーハン
&lv_6=12
&inote_6=(110)
{1},{2}
2h[2:1],5h[2:1],{8}4,3,2h[4:1],,5,4,3h[4:1],{32},,,5,
6-3[4:1],7,,,{8},,,{2}6-3[4:1],{4}5h[4:1],6>3[4:1],4,,
{4}7h[2:1],4,5>2[4:1],,{8}5,6,7h[4:1],,4,5,6h[4:1],,
{4}3^8[128:96],2^7[128:96],1^6[128:96]*^4[128:96],,,,,2b,
{16}56,,5,6,7,,4h[8:1],5,,,4,3,2,,5h[8:1],4,,,5,6,7,,4h[8:1],5,,,4,3,2,,54,,
{4}6^3[2:3],5-8[8:1],,4-1[8:1],,5-8[8:1],,4b,
{16}43,,4,3,2,,6h[8:1],5,,,5,6,7,,3h[8:1],4,,,4,3,2,,6h[8:1],5,,,5,6,7,,45,,
{2}3^6[8:1]/6-1[8:1],6^3[8:1]/3-8[8:1],1-5[2:1],4-8[2:1],1b,,
{4}2-5[8:1],6-3[8:1],5-8[8:1],,{8}1^4[4:1],,,,8^5[4:1],,,,
{32}4^7[4:1],3,2,,{8},,,{32}4-1[4:1],3,2,,{8},,,
8-5[8:1],,8^3[256:96],1>4[256:96],2>5[256:96],,,,
{4}7-4[8:1],3-6[8:1],4-1[8:1],,{2}8^5[4:1],1^4[4:1],
{4}6^1[128:96],7^2[128:96],8^3[128:96]*^5[128:96],,,,,7b,
{8}65,65,{16}4-1[8:1],5,{8}3,,,21,21,{16}3^6[8:1],4,{8}2,,,
{8}8-3[8:1],,8^5[4:1],,5-1[4:1],,1^6[4:1],,6-2[4:1],,2^5[4:1],,
{8}5^8[256:96],6^1[256:96],7^2[256:96],,,,,,
{8}34,34,{16}5-8[8:1],4,{8}6,,,78,78,{16}6^3[8:1],5,{8}7,,,
{4}1-6[8:1],1^4[4:1],4-8[4:1],8^5[4:1],5-1[4:1],1,
8^5[4:1],,1^4[4:1],,8h[1:1],,4h[8:11],,,,,{8},5,
2-6[8:1]/7,,8^3[8:1]/2,7h[8:3],8,,4,56,34,12,3^8[8:1]/8-4[8:1],,3-7[8:1]/8^5[8:1],,,,
1-4[8:1]/4,{16}2,3,,,5,,{8}8-5[8:1]/5,{16}7,6,,,4,,
{8}4-1[8:1]/1,{16}3,2,,,8,,{8}5-8[8:1]/8,{16}6,7,,,1,,
{8}7-3[8:1]/2,,1^6[8:1]/7,2h[8:3],1,,5,43,65,87,6^1[8:1]/1-5[8:1],,6-2[8:1]/1^4[8:1],,,,
8-4[8:1]/5,{16}7,5,{8},3,1-5[8:1]/4,{16}2,4,{8},6,
5-1[8:1]/8,{16}6,8,{8},2,4-8[8:1]/1,{16}3,1,{8},7,
8-4[8:1]/7,,8/6^1[8:1],5h[8:3],6,,2,34,21,78,
5-1[8:1]/2-6[8:1],43,5^8[8:1]/2^5[8:1],,,,
1/2-5[8:1],{16}3,4,{8}2,6,1/6-1[8:1],{16}7,8,{8}6,2,
5/2-6[8:1],{16}3,5,{8}2,4,8/4-8[8:1],{16}2,6,{8}4,7,
1-5[8:1]/2,,1/3^8[8:1],4h[8:3],3,,7,65,87,12,
4-8[8:1]/7-3[8:1],56,4^1[8:1]/7^4[8:1],,,,
8/7-4[8:1],{16}6,5,{8}7,3,8/3-8[8:1],{16}2,1,{8}3,7,
4/7-3[8:1],{16}6,4,{8}7,5,1/5-2[8:1]*-8[8:1],{16}37,37,{8},,
7h[8:3],6,5,4h[8:3],3,2,1^4[512:96],3^6[512:96],5^8[512:96],7^2[512:96],
1-5[8:11],
{2}5-1[4:5],,,{4},
2h[2:1]/4,{8}3,3,4^1[8:1],,,,
{8}5,6,7h[4:1],,4,5,6h[4:1],,{8}3-6[4:1],,,{32},,,2,
3-6[4:1],4,,,{8},,,{4}3h[4:1],{8}4-1[4:1],5-8[4:1],{4}6,,7h[2:1]/5,{8}6,6,5^8[8:1],,,,
{8}4,3,2h[4:1],,5,4,3h[4:1],
,6^3[256:96],5^2[256:96],,,1^6[256:96],8^5[256:96],,,4^1[256:96],3^8[256:96],,,,,7b,
,3^6[256:96],4^7[256:96],,,8^3[256:96],1^4[256:96],,,5^8[256:96],6^1[256:96],,,,,2b,
,6^3[512:96],4^1[512:96],,8^5[512:96],6^3[512:96],4^1[512:96],,
8^5[512:96],6^3[512:96],4>1[512:96]*<7[8:11],,,,,,,8>3[4:2],,,,,,,,
{1}1b/5b,,,,,
