&title=Ai Me
&artist=曲:Feryquitous / 歌:高瀬 梨緒(CV:久保 ユリカ)
&first=0.47
&des=Ring
&lv_5=13+
&inote_5=(180)
{8}E2,,E5,E7,,E6,E3,B1,,B8,,B7,,E4,E5/E3,,
Ch[8:3],,,B2/B7,,,,,Ch[8:3],,,E3/E7,,,E5,,
E8,,E5,E3,,E4,E7,B8,,B1,,B2,,E6,E5/E7,,
{4}1s5[4:4],,,,,,{16}4,5,4,,3x/6x,,,,
{8}2-5[8:1],5,6h[4:1],,7>2[8:1],,5,5-8[8:1],,3/5,,1,1,,2/8,,
7-4[8:1],4,3h[4:1],,2<7[4:1],,7<4[4:1],,4s8[8:3],,,8-4[4:1],,,2,,
3xqq3[8:3]/5xpp5[8:3],,,,,,4h[4:1],,5<8[8:1],,1,2>5[8:1],,6,7,8,
1x/2x,1,2,8h[4:1],,6h[4:1],,4h[4:1],,{16}E3,E2,E1,E8,E7,E6,E5,E4,E3,E2,E1,,,,
{8}6>3[8:1],3,2h[4:1],,1-5[8:1],,4,4-1[8:1]*-7[8:1],,4,,2/6,2/6h[4:1],,{16}7,8,1,2,
{8}3<6[8:1],,7,8-4[8:1],,8/3,2,,1-3-5[8:3]/8,,,5-7-1[8:3],,,1xpp5[4:2]*qq5[4:2],,
{4},,,4/8,3/7v6[4:1],,3v2[4:1],,
5w1[4:2],,,,{8}2/8h[4:3],{16}E3,E4,E5,E6,E7,E8,E1,E2,E3,E4,{8}E5,,
6,5,4/7-4[8:1],,8,,3,4,2-5[8:1]/5,,1,,3/7,,4/5,6,
7/5-3[8:1],7,5,6-2[8:1],2,6,3>5[4:2],,8h[4:1],,,,4-8[8:1],,,,
1x/7x,2,3,4/8,7,6,3/5,4,3/5-1[8:1],5,3-8[8:1],3,7-4[8:1],7,2,,
3/8,7,6,1/5,2,3,4>1[8:1]/7,,4,{16}8,7,6,5,4,3,2,1,8,7,6h[4:1],,,,
{8}5,7,8-5[8:1]/4,,3h[4:1],,4,2,1-4[8:1]/5,5x,1,,8h[4:1],,2,8,
1>4[8:1],,5,6<1[8:1],,2,3-1-5-1[4:2],,5h[4:2],,,,,,3/7,,
2x/6x,5,4,3/7,6,4,3/5,2,3/5-7[8:1],5,3-1[8:1],3,8-4[8:1],8,4,,
5/2,3,4,3/6,4,5,4/6h[8:3],,5,{16}5,4,3,2,1,8,7,6,5,4,3,2,1,8,
{4}Ch[1:15],,,{8}1,,2h[4:1],,,3h[4:1],,,4,,
{4}4p7[4:7],,,,,,,,
,,,{8}2,,1h[4:1],,,8h[4:1],,,7,,
{4}7>4[4:7],,,,,,,,
,,,,{8}3h[4:1],,,2h[4:1],,,1,,
{4}8q5[4:7],,,,,,,,
,,,1,{8}2,,3,3,,4,4,,
{4}5s1[4:2],,,,2h[4:3],,6h[4:1],,
{8}2b/6b,3,4-1[8:1]/5,,4/7-3[8:1],,7/8,1h[4:1],,5,6h[4:1],2,3-6[8:1],,3/8,7<4[4:1],
,3,2,1,8h[4:1],,4,2h[8:1]/6h[8:1],,2/6,3-8[8:1]/7-4[8:1],,3/7,,2/6,,
1/8,1-5[8:1],8,1,7-4[8:1],8-3[8:1],7,8,,6,4>1[8:1]/7,,4<7[8:1],,4/8,,
1,2/8,3/7,4/6,8,1/7,2/6,3/5,4-8[8:1],,4,,1xv4[8:1]/7xv4[8:1],,1x/7x,,
2/6-2[8:1],3,4h[4:1],,1-5[8:1],3,1,2h[4:1],,3x,3q7[8:1],,1,,2/8,3,
5<1[4:1],4,5,,5>1[4:1],5,,7,,6,2>5[8:1]/6<1[8:1],,2/6,,3/7,,
2-5[8:1]/4,,6,7-4[8:1],,3,2,1h[4:1],,4,3-8[8:1]/5-8[8:1],,3/5,,2/6,,
1x/7x<1[4:3],,8,8,7,7,6,6,5-1[8:1],5,2-6[8:1],2,8,8,2/8,,
{8}1b,1,1,1,1,1,1/8,1,{8}7h[4:1]/1,1,1,1/6h[4:1],1,1,1/5,1,
1/3h[4:1],1,1,1/4h[4:1],1,1,1/5,1,1/E8,1,1,1/E7,1,1,1/E6,1,
{8}8,8,8,8,8,8,{8}8/3,8,8/2-6[4:1],8,8,8,8,8,8/5,8,
{8}6-2>5[4:3]/8,8,8,8,8,8,8,8,8,8,8,8,8,8,8/1,8,
{8}8h[4:1]/2,2,2,2/7h[4:1],2,2,2/6,2,2/5h[4:1],2,2,2/4h[4:1],2,2,2/3,2,
2/E1,2,2,2/E5,2,2,2/C,2,{8}2,2,2,2,2/1,2,2/8,2,
{8}7/2-8z4[4:5],7,7,7,7,7,7,7,7,7,7,7,7,7,7/4,7,{4}7h[4:5]/3h[4:5],,,,,,Chf[4:1],B2/B3/E3/B7/B6/E7,
{8}4/5,3,1/2h[4:1],,{16}7,8,7,,3,4,3,4,{8}2-6[8:1],6x,7h[4:1],,{16}1,8,1,,2/7,,6,,
{8}4<7[8:1]/5,3,2,1-5[8:1],8,1,7-5-1[4:1],,3h[4:1],,,,2h[4:1]/8h[4:1],,,,
{8}3x/7x>2[8:1],6,5,4<7[8:1],3,2,1>4[8:1],8,7,6h[4:1],,5,4/7,,{16}4,3,2,1,
{1}4pp7[4:2]/8pp3[4:2],{16}2h[8:1],,E7,E6,E5,,3h[8:1],,E8,E7,E6,,2/6,,,,
{8}1/8,2,3/4h[4:1],,{16}2,1,2,,{16}7,5,7,5,{8}8-4[8:1],4x,3h[4:1],,{16}6,5,6,,{8}4/7,1,
6-2[8:1]/2,5,4,3>8[8:1],4,3,5-7-3[4:1],,1h[4:1],,,,2h[4:1]/4h[4:1],,,,
5x/1x-5[8:1],7,1,8-4[8:1],2,8,3-7[8:1],5,3,6,6,4,3/5,,4/6,,
8h[8:1],{16}E3,E4,E5,,7h[8:1],,E2,E3,E4,,{8}6pp3[4:2],,6/4,,,,2,2,4,5,
7h[4:2],,5,,3,4,2h[4:1],,4,,5,4/6,,4,{16}4/A6,D7,A7,D8,
{8}3h[4:2],,4,,6,5,7h[4:1],,5,,3,5/3,,6,{16}6/D4,A3,D3,A2,
{8}7,7h[4:1],,5,5h[4:1],,4,4,2,3,5,6,4h[4:1],{16}A8,D8,A7,D7,A6,D6,
{8}1,,2h[8:3]/6,,5,6h[4:1],,5,4/7,,3,3h[8:5],,{16}2,1,8,7,6,5,
{8}4x-8[4:5],,4,,E7,E6,,E3,E4,,B6,B4,,4,3,2,
1-5[4:5],,1,,E7,E8,,E3,E2,,B7,B1,,2,1,8,
7-3[4:6],E5,,E3,E4,,E2,E5,{1}Chf[1:2],
8h[1:1],
{4},{8},{16}1,8,1-5[8:1],8,2,7,1b,,,,
{8}4/6,6,2/4,2,{16}7-4[8:1],8,7,8,{8}7,2,3/5,3,5/7,7,{16}2-6[8:1],1,2,1,{8}2,8,
5/7,2,3/6,5,{16}3,4,3,4,2x,1,{8}2xh[4:1],,3-7[8:1],1-5[8:1],3,1,,4x/6x,,
3/7,{16}6,5,6,,3/7,,5,4,5,,2,,1/2h[4:1],,{8},8-4[8:1],3>5[8:3],8,3,,4x,,
7-1[8:1],3-5[8:1],7,3,6-2[8:1],2,6,3,{4}4>1[8:1]/8<5[8:1],4q8[8:1]/8q4[8:1],4/8,2/6,
{8}3/8,3,5/6,7h[8:1],{16}5>2[8:1],8,5,8,{8}5,7,1/6,6,3/4,3h[8:1],{16}1<6[8:1],4,1,4,{8}1,2,
3/5,{16}4,5,4,,{8}4/5,{16}6,5,{8}4x-8[8:1]/7x-4[8:1],,4x/7x,,1,1/7,2/6,{16}3,5,3,,2/6,,,,
8/4,,6,5,6,,1/5,,3,4,3,,{8}1/2,3-8[8:1]/8,,3,7,6,{16}4,5,4,5,3,6,3,6,
{8}1b>5s1[4:4],,,,,5,6,7h[8:3],,,,,{16}8-4[8:1],1,7,2,{4}8b,
3h[8:4]/5h[8:5],,,{8},2b/D6f/B5/B6,,,,8b/D3f/B2/B3,,{16}1,7,2,6,3,5,
{4}4bw8[8:1],Cf,{16}2,3,4,5,1,8,7,6,{4}1>4[8:1]/5<8[8:1],1/5,{8}3/7,5,4/3,,
1/6,{16}7,8,7,,2/6,,8,1,8,,3/7,,4-7[8:1]/5,,{8},3/4,2,2,{16}8,1,8,1,7h[4:1],,,,
{16}3,4,5,6,7,8,1,2,3/7,6,5,4,3,2,1,8,{8}4/7,3,2/5,6,8-4[8:1],1/7,8,,
2/5<7[8:1],,3h[4:1],,8,8>2[8:1],,6/8,6h[4:1],,3,3<5[8:1],,8/3,8h[4:1],,
4>2[8:1],,4/7h[4:1],,1<7[8:1],6h[8:3],1,,5-1[8:1],,5/7,,8-3[8:1]*-5[8:1],,8x,,
2x/6x,4,3/7,5x,3/4,1,5x/6x,8,{4}1x-5[8:1]/2,1/3x-7[8:1],3/5xw1[8:1],5x,
{4}3bv4>6[4:3]/7bv6<4[4:3],,,,,{16}7,3,6,4,5-1[8:1],,2/8,,5b,,,,
{8}7-3[8:1]/2hx[8:1],8-4[8:1],7,8,,{16}6,7,{8}8h[4:1]/2-4[8:1],1-5[8:1],2,1,,{16}1,8,1,2,3,4,8,7,6,5,
{8}4hx[4:1]/2-6[8:1],1-5[8:1],2,1,,{16}3,2,{8}1h[4:1]/7-5[8:1],8-4[8:1],7,8,,{16}7,8,7,6,5,4,3,2,1,8,
{8}7xh[4:1]/3-8[8:1],5-1[8:1],3,5,,{16}2,3,{8}4h[4:1]/8-4[8:1],6-2[8:1],8,6,,{16}6,5,6,7,8,1,5,4,3,2,
{8}1xh[4:1]/6-1[8:1],4-8[8:1],6,4,,{16}7,6,{8}5h[4:1]/1-5[8:1],3-7[8:1],1,3,,{16}8,1,8,7,6,5,4,3,2,1,
8x/4x,,7-3[8:1],5,6,,7/1h[4:1],,,,4,2,4,,3-7[8:1],4,2,,3/5h[4:1],,,,2,1,2,3,4,5,1,8,7,6,
1x/5x,,2-6[8:1],4,3,,2/8h[4:1],,,,5,7,5,,6-2[8:1],5,7,,6/4h[4:1],,,,7,8,7,6,5,4,3,2,1,8,
{8}4x/7x,3/6,2/5,{16}3,4,3,4,3h[8:1],,1,2,1,,{8}3/4,4/5,5/6,{16}7,8,7,8,7h[8:1],,2,1,2,,
{8}3x/8x,4/7,5/6,{16}3,4,2,4,3h[8:1],,8,1,7,2<7[16:3],{4}6>3b[8:1],,{16}1-5[8:1],5,3,7,1b,,,,
{8}7qq4[4:6]/4,,,,,,1,1,2,2,2,2,3,3,3,3,
2qq5[4:6]/5,5,5,5,6,6,6,6,7,7,7,7,8,8,8,8,
2,2,4,4,6,6,8,8,1,1,3,3,5,5,7,7,E1,E8,E2,E7,E3,E6,E4,E5,A1,A8,A2,A7,A3,A6,A4,C,
