&title=ほしのおとしもの
&artist=ああああ
&first=-0.56
&des=DeemoAlice vs Friskig
&lv_5=13+
&inote_5=(205){1},
{8}3>6[8:7],,,,,5,5,4,4,,,,8,,,,
{8}2>7[8:7],,,,,8,8,1,1,,,,
{16}3h[16:3],,,4h[16:3],,,5h[16:2],,
{8}6pp8[16:3],,,,,{16},2h[16:3],,,3h[16:2],,
{8}4,,57,,46,,35,,2h[4:3]/6h[4:3],,,,,,,,
{8}4qq5[4:7]/5,,,,,,,{16}5,6,
{1}7>3[4:3],,,
{8}45,,2,2,6,4,5,3h[8:4],,,,8,,6,5,7,4,,12,12,,7,8,1h[8:3]/6h[8:3],,,,,
{8}2,1,8V64[8:3],,4,,,,2,1,8V64[8:3],,3,,
{8},1,,2,,,
{8}3/4h[8:4],,,5s1[8:2],5,,,,
{8}6b,8b/4b,,,1b/5b,3b/7b,,,
{4}8/2,{8}6,4,{4}6/4V25[16:5],7,
8,{8}6,4qq5[8:3],{4}6/4,7,
8,{8}6,2,{4}6/2^7[16:3],7^2[16:3],
5,,
{8}3,4,5,6,2bV48[8:2]/7b,,2,7-5[8:1],,7,1,2h[8:2],,
{16}1b,8,7,6,5,4,2,3,4,5,6,7,8,1,
{8}6b/2b,,57,,2,4,3,5h[8:4],,7,,,1,8,27,,
{8}3,,24,,7,5,6,4h[8:4],,2,,,6,5,47,,
{8}2^4[8:1],,21,,6,5,6h[8:5],7,,4,,,2,1,83,,
{8}6-8[8:1],,65,,2,1,2h[8:3],3,,{16}8,7,6,5,4,3,2,1,8,7,{8}2b-5[8:1]/6b,,
{4}8/2,{8}6,4,{4}6/4V25[16:5],7,
8,{8}6,4qq5[8:3],{4}6/4,7,
8,{8}6,2,{4}6/2^7[8:2],7pp2[16:7],
5,,{8}6,5,4v6[16:3],,
{4}24,3,{8}2,1,8v2[16:3],,68,,
{8}7,7,,1,1V74[16:4],,
3,,{8},2,{2}2h[8:3]/6h[8:3],
{8}45,,,2z6[4:1],,,,,{4}5b^2[8:1],
6/5,{8}7,8,1^6[8:1],2,
,,,4h[4:1],,7,5,6,
{4}4v7[8:1],{8}1,1,,7/8,6/1,2-4[8:1]/5-1[8:1],
,,,,7/4,6,5/1,2,
{4}7b/3b-6[8:1],{8}5,7-2[8:1],,1,,4h[4:1],,
{8}7^4[8:1],7,2q6[8:1],2,8,8w4[8:1],,8b,,,
{8}26,2qq7[8:6]/6qq3[8:6],,,,,,,,,,,,
{2}6h[2:1],
{8}5h[8:3],,,4h[2:1],
,,,3h[8:3],,,,,{2}4h[2:1],
{8}5h[8:3],,,6-3[8:4],
,,,,,,,,{2}2h[2:1],
1h[2:1],
{8}8h[8:3],,,7h[4:1],,3,{4}3>6[8:5],
5,5,4,4pp8[8:5],
3,3,2,2-4[8:1],
1/2,7-5[8:1],78,3-1[8:1],
4/3,6-8[8:1],56,
{8}1,,5/4,5,4,{16}4,,{8}6,6,3,{16}3,,
{8}81,{16}6,5,{8}7,{16}3,4,{8}2,{16}6,5,{8}7,{16}3-7[4:5],,
{1},{4},,
{2}5-8[8:1]*-2[8:1],
{8}1b-5[8:1],,1/8<3[16:3],8,{4}3,
{16},,2,1,{8}2,3,47,6,54,3,26,,
{8}4/8-4[8:1],,8/1>6[16:3],1,{4}6,
{8}8,8V62[8:2],
,,,,{2}4-7[8:1]*-1[8:1],
{8}8-4[8:1],,8/1>6[16:3],1,{4}6,{4}7h[4:1],
{8}8-3[8:1],,6/8-5[8:1],,84,,{4}2-5[8:1],
2b/6b,{8}8b,2bv5[8:1]/6b-1[8:1],,2b/6b>7[8:3],,4h[8:3],
,,,,{16}1,2,3,,8,7,6,,
{8}4b-1[8:1],,6,5,{4}4-7[8:1],{8}8,1,
2-4[8:1],2,1-5[8:1],1,8-4[8:1],8,{4}7<1[16:5],
{8}7/3h[8:2],,,{24}8,7,6,{4}5>6[4:2]*<4[4:2],,,,
{4}8-3[8:1]*-5[8:1],,
{8}4-8[8:1],6-8[8:1],4,6,,1-3[8:1]*-5[8:1],,1,
,6/4>6[16:5],,6/4,,5,5,,{16}18,,3,4,2,,6,5,7,,4-1[8:1]/8-5[8:1],,,,
{8}48,,37,37,37,37,,
{4}5b/4b,
{8}8-6[8:1],1-5[8:1],8<3[16:3],1,{4}8,
{16},,2,1,{8}2,3,45,6,78,1,26,,
{8}8-6[8:1],1-5[8:1],8<3[16:3],1,{4}8,2h[4:1],
{8}1-6[8:1],3,1-4[8:1],2,1,8,37,,
{16}8h[8:2],,6,5,4,,1,,1h[8:1],,2,3,4,,8h[8:2],,,,
{16}3,4,5,6,7,8,15,,6,,
{8}7/2-5[8:1],1,2b/6b,,{8}8b,2bv7[8:1]/6bv3[8:1],,2b/6b>7[8:3],,6/1h[8:3],
,,,,{32}1,2,3,4,5,6,7,8,{4}1b,
{8}5-8[8:1],3,5,4,{4}5-2[8:1],{8}5/1,8,
7-4[8:1],7,8-4[8:1],8,1-4[8:1],1,{4}2>8[16:5],
{8}2/5h[4:1],,,{24}15,26,37,{4}8/4<3[4:2]*>5[4:2],,,,
{4}8-3[8:1]*-5[8:1],8,
{8}4b-8[8:1],6-8[8:1],4,6,,1-3[8:1]*-5[8:1],,1,
,6V48[8:2]/4,6/4-2[8:1],6/4,,,17,,
{8}1b-5[8:1],7-5[8:1],1,7,,4-2[8:1]*-8[8:1],,4,
,7V13[8:2]/1,7/1-5[8:1],7/1,,,46,,
{8}5b-1[8:1],3-1[8:1],5,3,,8-6[8:1]*-4[8:1],,8,
,3V57[16:3]/5-1[16:3],3/5,3/5,,,28,,
{16}1b/7b,,3,4,2,,7,8,6,,1w5[8:1],5,1,,1b,,
{8},37,37,,4b/8b,6b/2b,,{24}1b/8b,27,36,
{1}4b>5[4:10]/5b<4[4:10],,,
{4},,{16}3h[16:3],,,4h[16:3],,,5h[16:2],,
{8}6pp8[16:3],,,,,{16},2h[16:3],,,3h[16:2],,
{8}4,,57,,46,,35,,2h[4:3]/6h[4:3],,,,,,,,
{4}45,,3,6,4qq1[4:15]/5,,,,,,,
{16},,6,7,{1}8q3[4:7],
