&title=True Fighter
&artist=Future boyz
&first=0.57
&des=SHINIEST
&lv_5=13+
&inote_5=(148){4}4h[16:3]/7qq8[4:3],{8},3h[16:3],,,2,3,
4h[16:3],,,6h[16:3],,,5h[4:1],3h[16:1],
{16}2pp1[2:1],,,1,,,{8}6h[16:3],,,5,5,
3h[16:3],,,4h[8:1],{4}5h[8:1],3h[8:1]/6h[8:1],
{16}4,,,4,,,{8}5,{16},5,,,{8}4/5,5/4,
{16}6,,,3,,,{8}7,{16},2,,,{4}7<8[2:1],
7/3<7[4:1],,,3h[1:1],
{16}5,,,6,,,{8}7,{16},6,,,{8}5,5/3,
{4}7-5[8:1],4-2[8:1],5-7[8:1]/4-8[8:1],5/4,
1-3[8:1],1-5[8:1],6-8[8:1]/1-3[8:1],6/1,
{8}3p6[4:1],3,{4}6<2[4:1],{2}2q6[4:1]*>6[4:1],
{8},,3/7h[8:1],3,2/6h[8:1],2,{4}8h[8:1],
5/1V35[4:1],{8}5,7,{4}1V75[4:1],{8}5,3,
{4}8>4[4:1],{8}4,6,{4}8<4[4:1],{8}4,2,
1>3[8:1],3<5[8:1],5<7[8:1],7>5[8:3],,,{4}5<1[4:1],
{2}1>5[4:1],{4}6h[8:1],{16}4,5,{8}4,
2h[4:1],7,{4}4h[4:1],6h[4:1],8h[2:1],
{2}1h[4:1],{8}1-3[8:1],1-7[8:1],{4}1-5[8:1],
,6h[4:1],3,{8}4h[4:1]/7-1[8:1],7-5[8:1],
,,{4}4h[2:1],{2}5h[4:1],
{4}2b-4[8:1]/6bpp4[16:7],6b/2bqq4[16:3],2b,{8}5h[4:1],1,
3,2/4,3/6,5/4,{4}3-6[8:1]/6>3[8:1],3>6[4:1]/6<3[4:1],
{8},,,,1-4[8:1],1v6[8:1],{4}1,
3h[4:1],5w1[8:1],{2}5b,
{4}7b-5[8:1]/8b-2[8:1],8b-4[8:1]/7b-3[8:1],7b/8b,{8}6-8[8:1]/3-1[8:1],5/4,
{4}6/3,{8}2/5,6/3,4bV28[8:1]/7bV53[8:1],6/3,{4}7/4,
{8}1h[4:1]/4h[4:1],,,2/5,3/6,4/7,3/6,5/3h[4:1],
6,7,{4}5/3<2[4:1],{2}6h[4:1],
{16}1-5[8:1],2,{8}3h[8:1],{4}1,{16}7-3[8:1],6,{8}5h[8:1],{4}7,
{8}2<7[8:1],7-3[8:1],{4}3<6[8:1],{16},,,,8-3[8:1],7,6,5h[16:3],
{4}8,{16}1-6[8:1],2,3,4h[16:17],{4}1,{8}5,6,
7>3[4:1],7,,,,,{4}2/4,
1-5[16:3],5<1[4:1]*>1[4:1],{16},,,,,,,,8,
7/1,6/2,5-1[8:1]/3-7[8:1],,,,,,,{8}6/2,{4}3/5,
{16}6bp1[8:1]/3bq8[8:1],,,3b/6b,,,,,8bp1[8:1]/1bq8[8:1],,,8b/1b,,,,,{8}6bv8[8:1]/2bv4[8:1],
7/3,{4}6/2,{16}7/3,6/2,5/1,4/8,{4}3<7[4:1]/7>3[4:1],
,,,,{1}8-5[4:1]/2p5[4:1],
{4}8-5[4:1]/5qq5[4:1],,,3V52[4:1]/7V16[4:1],
{1}7/3,
{8}2h[4:1]/7h[4:1],{16},,,,1,8,,7,{8}2,{16}1,8,,7,
{4}2,{8}8/1,8/1,{4}8-4[8:1]/1-3[8:1],8-6[8:1]/1-5[8:1],
{8}8/1,,,4/3,{16},6,{8}5,{16}3/2,,,6,
{8}5,2/7,{4}7/2,8v3[8:1]/1-4[8:1],1v6[8:1]/8-5[8:1],
1/8,{8}3h[8:1],6,,,{4}3V57[2:1],
,7-1[4:1],{2}1V35[2:1],
{4}5-7[4:1],7-1[4:1],1V35[2:1],7p4[4:3],
,,,,{2}2h[4:1]/4h[4:1],
{4}3,4-8[4:1],
{2}4h[4:1],{4}1-6[8:1]*-7[8:1],1-4[8:1]*-3[8:1],
1,8p4[8:1],2/8q4[8:1],6v1[8:1],
6/2v5[8:1],2,8<5[8:1],2/8>3[8:1],
6/8-4[8:1],8/4-7[8:1],3/4qq2[8:1],5/4pp6[8:1],
4/8-3[8:1],8,7/2q6[8:1],8p4[8:1],
1q5[8:1],1/7p3[8:1],7/1q5[8:1],{8}8p4[8:1],7,
8/2q6[8:1],3,{4}2/7,{8}5/4,6/3,7/2,7/3,
8/2,1/8,2,1,7,8,1/8,8/1,
{16}1,8,1,8,2,7,2,7,3,6,3,6,4,5,4,5,
{1}4,
{4}1-5[2:7],1h[2:3],,,,,,,1<6[4:1],
1>4[4:1],1v7[4:1],1v3[4:1],
,,{2}1h[4:1],
{4}8-4[2:7],8h[2:3],,,,,,,8>3[4:1],
8<5[4:1],8v2[4:1],8v6[4:1],
,,,8h[1:2],
{1}3V51[2:3],
,{24}8b/1,
7,6,5qq3[8:1],,,{4}3b>8[8:1],{16},,,,7,6,{8}5,
4/3,5/6,7/8,1/2,4/3-8[8:1],5,3/6-4[8:1],6,
6/2-4[8:1],2,{4}2/6,{8}8v5[8:1],8v3[8:1],{4}8,
6h[4:1],4w8[8:1],4b,1h[8:1],
{24}1b>4[12:1],8,7,6,,,{4}1b-6[8:1],{24}1b,2,3,4,,,{8}5-2[8:1],6,
3-8[8:1],4,6-1[8:1],5,4-7[8:1],3,{4}5h[2:1],
{16}1,2,3,4,,6,7,8,{8}5h[16:15]/1>4[8:1],2,{16},,,,6,
7,8,1,2,3,{8}4,{24}6,7,8,1,2,3,{4}4,
{8}7b/1b-5[8:1],8/2,{4}1/3,{8}2b/8b-4[8:1],1/7,{4}8/6,
{16}5v7[8:1]/1v3[8:1],2/6,7<4[8:1]/3>8[8:1],4/8,,,,,,,,,{8}2/5<8[8:1],6,
5/4>1[8:1],3,4/5v2[8:1],6,5/4v7[8:1],3,4/5-8[8:1],6,
5,4,{4}5h[4:1]/1<5[4:1],{16},4,3,2,{4}1,
{24}2b/7h[12:1],3,{12}4,{24}3/8h[12:1],4,{8}5b,4h[16:1],7b/3h[16:1],{16}6,3h[16:1],5b,2h[16:1],{8}7,
{24}7b/2h[12:1],6,{12}5,{24}6/1h[12:1],5,{8}4b,{16}3,4,2b,6,5,7,{4}8b/1b,
{16}3b,4,2,5b/6,{8}5,8/1,{16}6b,5,7,4b/3,{8}4,7/2,
{16}5bs1[8:1]/4bz8[8:1],4/5,,,{4}5/4,{2}8<1[4:5]/1>8[4:5],
E
