&title=ダイナマイト
&artist=森羅万象
&first=0
&des=NaOH
&clock_count=4
&lv_5=13
&inote_5=(176)
{4},,,,,,,,E3/B2,,,,E7/B7,,,,E5/B5/B4,,,E1,Ch[4:4],,,,,,
B1/B2/B3/B4/B5/B6/B7/B8/Cf,,
{8}4xh[4:4]/5x,5,5,5,5,5,5,5,5-8[8:1],,4b/5b,,4w8[8:1],,4b,,
{16}3x,,3,4,3,,45,,2>5[8:1],,6,,2,,,,6,5,6,5,6-1[8:1],,3,,2-5[8:1],,,,2b/8b,,,,
6x,,6,5,6,,45,,7<4[8:1],,3,,7,,,,3,4,3,4,3-8[8:1],,6,,7-4[8:1],,,,7b/1b,,,,
3x,,3,4,2,,34,,1-5[8:1],,6,,1,,,,7,8,7,8,7-4[8:1],,2,,3-8[8:1],,,,3b/5b,,,,
6x,,6,5,7,,65,,8-4[8:1],,3,,8,,,,2,1,2,1,2-5[8:1],,7,,6-1[8:1],,,,6b/4b,,,,
{8}2xh[4:7],B4,,B8,,A6,,A3,,A8,,A5,,E7,E6,,
7xh[8:7],B5,,B1,,A3,,A6,
{16}8h[4:1],,E2,E3,E4,,8,,6,5,6,,4b/7b,,,,
{8}
5<8[8:1],,4,,2>5[8:1],,6,,{16}7,,7,8,7,,{8}16,2,13,8h[4:5]/4,,
1-6[8:1],,1bx,,1-4[8:1],,1bx,,1-5[8:1],,7bx-4b[8:1]/1bx<6[8:1],,1bx,,B8/B1,,
2-7[8:1],,4,,6-3[8:1],,5,,{16}2,,2,1,2,,{8}83,7,86,1h[4:5]/5,,
8-3[8:1],,8bx,,8-5[8:1],,8bx,,8-4[8:1],,2bx-5b[8:1]/8bx>3[8:1],,8bx,,
6xp4[8:3],,6,,,2,2h[4:1],,C,,3q5[8:3],,6,7,8,,C,,
{16}6h[16:3]/5,,,5,6,,{8}5,47,38,1/2-5[8:1],,
7-4[8:1]/2,,1p8b[4:1]/7,,1,,E5/D5f,,
5x<2[4:1],,4,,4>7[4:1],,6,,{16}6,,6x,5x,4x,,{8}3,24,15,6h[4:1]/8,,
1-5[8:1],,1bx/2,,1-6[8:1]/7,,1bx/3,,1-5[8:1]/7,,1bx-4p7b[4:1]/3,,1b,,,,
8x<3[4:1],,1,,1>6[4:1],,8,,{16}8,,8x,7x,6x,,{8}45,36,27,1h[4:1]/8,,
8-4[8:1],,8bx/7,,8-3[8:1]/2,,8bx/6,,8-4[8:1]/2,,8bx-5q2b[4:1]/6,,8b,,
{16}3,,4,,5h[16:3],,,6,5,,47,,3-5[12:1]/8-6[12:1],,,,,,,,
2h[16:3],,,1,2,,38,,4-2[12:1]/7-1[12:1],,,,,,,,
{16}6h[16:3],,,5,6,,5,,{8}45,34,2>5[8:1]/3,,
7p3[8:1]/2,,1s5b[4:1]/7,,1b/8b,,,,
{4}
4<7-2[4:4],,C,,2^7-4[4:4],,C,,4>1-6[4:4],,C,,6s2[4:2]*z2[4:2],,,,
{8}3,4h[8:2],,5,46,3,46,7,8-4[8:1],,2z6b[4:1]/8,,C,,,,
18,8h[4:1],B2/B3,,4,4h[4:1]/5,B6/B7,,
7,7h[4:1]/8,E1/D1,,3,3h[4:1]/4,A5/B5,,
7x-5[12:1],,3x-1[12:1]/D7f,,8x-4[8:1]/D3,,1x-5[8:1]/A8f,,
7x-3[8:1]/A1f,,A7f,,,2x,1x-4[8:1],28,,,
8x-4[8:1],3,8-6[12:1],1-5[8:1],8,1,8-4[8:1],4-7[8:1],8,3,2,1>7b[4:1],28,1bx/3bx,,,
1x-4[8:1],4,1,8-5[8:1],5,8,3-8^2-4[4:1],,35,6,,6h[4:1],8-4[8:1],1,2b/8b,,
1x-5[8:1],6,1-3[12:1],8-4[8:1],1,8,1-5[8:1],5-2[8:1],1,6,7,8-6-4-2b[4:1],71,8b/6b,,,
8x-6[12:1],5,8,4-2[12:1],1,4,8h[8:3],,5x>8b[4:1],6x,,8,7-3[8:1],6,5b,,
8x<6[12:1],5,8-4[8:1],3-1[12:1],8,3,6<1[8:1],1p5[8:1],6,2,3,4>6b[4:1],3,2bx/4bx,,,
2x-5[8:1],4,2,6-1[8:1],2,6,2-5[8:1],4,2,7-1[12:1],1-5-3[4:1],7,2b,2b,,,
1x>3[12:1],4,1-5[8:1],6-8[12:1],1,6,3>8[8:1],8q4[8:1],3,7,6,5<3b[4:1],6,7bx/5bx,,,
6,6,5,5,43,43,
2x/6x,37,26,37,3-8[8:1]/7-4[8:1],,3b/7b,,
1x/5x,26,15,26,1v4[8:1]/5v8[8:1],,1b/5b,,
2x/6x,48,26,48,2v3[8:1]/6v7[8:1],,2b/6b,,Chf[4:7],,,,,,,,,,,,,,,,
{16}
2x/5x,,3,4,3,,25,,3h[4:1],,4,,5h[4:1],,4,,3,4,2,4,3-8[8:1],,6,,7-4[8:1],,,,3b/7b,,,,
6x/5x,,7,5,6,,47,,6h[4:1],,5,,4h[4:1],,5,,6,5,7,5,6-1[8:1],,3,,2-5[8:1],,,,6b/2b,,,,
3x/7x,,6,4,5,,37,,7h[4:1],,1,,3h[4:1],,1,,7,3,6,3,5-1[8:1],,3,,2-5[8:1],,,,2b/8b,,,,
6x/2x,,3,5,4,,62,,2h[4:1],,8,,6h[4:1],,8,,2,6,3,6,4-8[8:1],,6,,7-4[8:1],,,,7b/1b,,,,
E2,E8,E4,E6,C,,8,,8z4b[8:1],,,,1b/8b,,,,
