&title=lulu.
&artist=Mrs. GREEN APPLE
&first=0.65
&des=Kurage
&lv_5=13+
&inote_5=(175)
{1}
,,,,,,,,
{2}1-4[8:3],8-5[8:3],4-1[8:3],5-8[8:3],
{4}2h[4:1],1h[4:1],8h[4:1],7<2[4:3],,8v1[4:1],,,
{4},3-8[8:3],,6-3[8:3],,1<6[8:3],,5qq4[8:7],
{1},
{8}5z1[8:3],,,4,4xh[8:3],,,8,
{4}
2b-4[8:1]/6b,7,1-5[8:1],5,2>6[4:1],7,1-4[8:1]*-6[8:1],,
3>8[4:1]/5,8<5[4:1],5>2[4:1],2<7[4:1],7,5-8[8:1],1-4[8:1],5,
{8}
36,,8-4[8:1],2h[4:1],,,7-5[8:1],4qq8[8:3],,,6,,5-1[8:1],,1,,
37,26,5<8[8:1]/1>4[8:1],51,,,5-1[8:1],6,7<4[8:1],8,1xb/7b,,{16}3,4,3,,{8}6,4,
{8}
7pp6[4:2],,,5,5,,,4-2[8:1],,6-4[8:1],,,1x,,3,5,
2qq3[4:2],,,4,4,,,5-7[8:1],,3-5[8:1],,,8x,,6,4,
7h[4:1],5,4,3>8[8:1],4,5,6>3[8:1],,1-5[8:1],,8-4[8:1],,1x,,,27,
{4}2h[8:1]/7h[8:1],,3h[16:1]/6h[16:1],,{4}45,{16},,3,4,{8}3,6,5,7,
{32}1b<6[8:1],2,3,4,{8},1>4b[8:1],,18,,
{32}1b>4[8:1],8,7,6,{8},1<6b[8:1],,12,,
{32}1b,2,3,4,5-1[8:1],6,7,8,{8}1,,
{8}3b>7[4:1],,6,6,5-8[8:1],,4x,,3>7[4:1],3,,5,5,,64,,
{32}8b>3[8:1],7,6,5,{8},8<5b[8:1],,81,,
{32}8b-4[8:1],1,2,3,{8},8>3b[8:1]*<5[8:1],,8,,
{8}2-7[8:1]/6-3b[8:1],,26,,
{8}5b<3[8:3]/1b,,3,3,4-8[8:1],,5x,,{16}7,6,5,4,1,2,3,4,{8}8-4[8:1],8,1,,
{32}5b-2[8:1],6,7,8,{8},5-8b[8:1],,54,,
{32}1b-5[8:1],2,3,4,{8},1w5b[8:1],,1,,
{8}2-5[8:1]/7-4[8:1],,72,,
{8}1b/8b,27,3<6[8:1]/6,,8>3b[8:1],,5-8[8:1]*-2[8:1],,
{8}5,,1-4[8:1]*-6b[8:1],28,1>8[8:3],,5,,
{8}Cf,,1x-5[8:1],,1<6[8:1]/8>3[8:1],,18,,
{8}27,,4x>1[8:1]/5x<8[8:1],,4-8[8:1]/5-1[8:1],,45,,
{4}3b/6b,{16}1,2,3,4,{4}5b/7b,{16}8,7,6,5,
{16}2bh[8:1]/4bh[8:1],,,5bh[8:1]/7bh[8:1],,,1b/8b,,
(87.5)
{12}5x<8[12:1]/4xqq4[12:2],,73,
(87.5)
{12}
4b/5b`Cf,,,5>2b[12:1]/6pp6[12:2],,73,5b/6b,,1x,5x-1[12:1],,{24}6,5,
7xb-3[16:1],,,,8,7,1xb-5b[16:1],,,,2,1,3xbh[8:1],,,7,,,{12}4>1[12:1]/5pp5[12:2],,26,
5b/4b,,,4<7b[12:1]/3qq3[12:2],,26,4b/3b,,,1-5[12:1]/8-4[12:1],12,78,
1b/8b,,63,5<8[12:1]/4>1b[12:1],65,43,5b/4b,,6x/5x,3p4[12:2]/4<7[12:1],,26,
3b/4b>1[12:1]`Cf,,8,8-3b[12:1]*-5[12:1],7,6,8b,,3x/4x,6q5[12:2]/5>2[12:1],,73,
6b/5b<8[12:1],,1,1-6b[12:1]*-4[12:1],2,3,1b,,8x/7x,4-1[12:1]/5-8[12:1],,{24}27,36,
{12}4xb/5xb`Cf,,2x/1x,4-8b[12:1]/5-1b[12:1],,{24}27,36,{12}4xb/5xb`Cf,,,4>6[12:2]/5,3,6,
{12}4b/5b<3b[12:2],,,4b>4[12:2]*>4[12:2],,,5bw1b[12:1],,,5x-1p3[4:2]*-1q7[4:2],,
