&title=男装女形表裏一体発狂小娘の詐称疑惑と苦悩と情熱。 (feat. Fantastic Youth)
&artist=SLAVE.V-V-R
&first=0
&des=男的来了女的来了男同来了女同来了男娘来了萝莉来了正太来了伪娘来了变性来了人妖来了武装直升机来了沃尔玛塑料袋来了高松灯来了爱音来了素世来了要乐奈来了立希来了海铃来了初华来了喵梦来了小睦来了小孩来了桃香来了打车的来了小智来了皮卡丘来了卢帕拉了小姨来了废物老爹来了舔狗来了神人来了奶龙来了贝利亚来了哈基米来了咕咕嘎嘎来了灵感菇来了曼波来了小明剑魔来了甲亢哥来了电棍来了炫狗来了若子来了原子弹来了小男孩来了神父来了胖子来了大胃袋来了丁真来了雪豹来了倪哥来了雨姐来了孙笑川来了东雪莲来了塔菲来了揽佬来了时代少年团来了马嘉祺来了丁程鑫来了刘耀文来了宋亚轩来了张真源来了严浩翔来了贺峻霖来了华为来了小米来了三星来了原神来了战狼来了白象来了肯德基来了麦当劳来了叮咚鸡来了异世界来了转生者来了系统来了金手指来了老八来了奥利给来了外星人来了二次元来了纸片人来了
&lv_5=♂
&inote_5=(190)
{1},,,
{16}3,4,3,4,2,,5,4,5,4,6,,2,4,2,4,
{16}1/6,,,1,7,,7,,{32}2,3,4,5,6,7,8,1,2,3,4,5,6,7,8,1,
{1}2/6b-3[4:14],,
{8}4h[8:1],,4h[8:1],,5h[8:1],,5h[8:1],,
{8}6h[8:1],,6h[8:1],,7h[8:1],,7h[8:1],,
{16}8-6[8:1],,4,,8,,4,,5-7[8:1],,3,,5,,3,,
{16}8-5[8:1],,4,,8,,4,,6-1[8:1],,3,,6,,3,,
{16}4-2[8:1],,1,,4,,8,,1-3[8:1],,7,,1,,7,,
{16}4-1[8:1],,6,,4,,6,,8-4[8:1],,5,,8,,5,,
{16}6-1[8:1],,3,,6,,3,,1-4[8:1],,2,,1,,2,,
{16}3,,3,,2/5,,2/5,,1/6,,7,8,,8,7,,
{16}6/5,,6/5,,3,4,2,,7/8,,6,5,,3,4,,
{16}2,4,3,6,5,6,3,4,2,5,6,7,8,3,2,1,
{16}8/5,,,6/2,,,4<3[8:3]/8,,,,,,,,,,
{8}6,6-1[8:1],,2h[8:2],,3-8[8:1],,5h[8:2],
{8},6-2[8:1],,4h[8:2],,3-7[8:1],,1h[8:2],
{8},8-5[8:1],,2h[8:2],,3-6[8:1],,4h[4:1],
{8},7-2[8:1],,5h[4:1],,1-5[8:1],,4,
{8}2h[8:2],,3,4/1,,6,8/5,,
{8}8-5[8:1],8,4-1[8:1],4,6-3[8:1],6,2-7[8:1],2,
{8}8-5[8:1],8,4-1[8:1],4,6-3[8:1],6,2-7[8:1],2,
{8}4-7[8:1],4,8-3[8:1],8,6-1[8:1],6,2-5[8:1],2,
{8}4-7[8:1],4,8-3[8:1],8,6-1[8:1],6,2,2,
{16}3/4,,3,4,2,,8/7,,6,5,7,,8/2,,,,
{8}5<3[8:12]/4,,,,,,,,
{8}5v3[8:4],,,,,,,,
{8}7v4[8:12]/1v4[8:12],,,,,,,,,,,,,,,,
{8}3>8[16:3],4,5,,6<1[16:3],5,4,,
{8}2h[4:1],,1h[4:1],,8h[4:1],,6h[8:2],,
{8}3,3,3/5,3,3/7,7,8/1,7b<1[8:6]/2b>8[8:6],
{8},,,,,,,,,3/6,3/6,3pp5[8:1]/6qq4[8:1],3/6,,,,
{16}5/2,,3,4,3,,6/5,,7V51[16:3],8,7,,4,,2<4[8:2],,
{16},,8h[8:2],,,,,,3,5,2,,7V53[16:3],,7,,
{16}3,,2,,1V38[8:2],,1,,8-5[8:1],,5<2[8:2],,6,,7h[8:3],,
{16},,,,,,6,5,6,5,6,,3,4,2,,
{16}4/7,,6,5,6,,3/4,,2V48[8:2],8,2,,5,,7>4[8:2],,
{16},,1h[8:2],,,,,,6,5,7V52[16:3],,8,,3,,
{16},,4,5,3,,2/7,,4,5,3,,7h[8:6]/1,,{24}6,5,4,3,
{24}2,1,8,6,5,4,3,2,1,8,6,{16}5b,,,,4-8[8:1],,3/5,,
{16}6>3[8:1],,,,8-4[8:1],,1,,2,,3pp8[8:2],,,,1h[8:3],,
{16},,,,6,,6,5,7<4[8:1],,8,,7/3,,,,
{16}2,,1,,8/3pp8[8:2],,,,8<8[8:3],,7,,6h[8:4],,,,
{16},,,,,,3,4,3,4,3,,6,5,7,,
{16}1/2,,3,4,3,,7/5,,3V58[16:3],4,2,,5,,7b>5[8:2],,
{16},,1h[8:2],,,,,,6,5,7V53[16:3],,8,,1-5[8:1]/7,,
{16},,1,,6h[8:1],,4,,3,7,2,6,1,5,8b-4[8:7],,
{16},,,,,,,,,,,,,,,,
{8}6h[8:6],,5,5,7,,4h[8:10],,
{8},,2,2,,,5,,
{8}7h[8:6],,8,8,,,3h[8:10],,
{8},,2,2,,,5,,
{8}8h[8:6],,6,6,,,1h[8:10],,
{8},,3,3,,,7,,
{8}5h[8:4],,7,7,1h[8:4],,3,,
{8}6h[8:4],,5,5,2-4[8:1]*-5[8:1],,,,
{8}6,5,4,4,3,3,4,5v6[16:3]/3h[8:5],
{8},,,,8-5[8:1],,5,,
{8}3,4,5,6,3,3,4,5h[8:5]/3v1[16:3],
{8},,,,1-4[8:1],,4,,
{8}6,5,4,3,6,6,5,4V68[16:3]*v2[16:3],
{8},,,,1-7[8:1]*-3[8:1],,1,,
{8}3,4,5,6,4,4pp4[16:3],,4b/7h[8:2],
{16},,3,,8/2,,,,6,5,7qq5[16:3],4,6,,7b/2h[8:2],,
{16},,6,,1/7,,,,1,8,2p6[8:1]*q6[8:1],7,1,,2b<2[8:6]*>2[8:6],,
{16},,,,,,,,,,,,,,,,
{16}1/6,,,1/6,,,7/8,,5b`1b,,,,,,,,
{16}8-5[8:1]/4-1[8:1],,,,8/4,,,,{32}4,3,2,1,8,7,6,5,4,3,2,1,{16}8w4[8:1],,
{16},,8b,,,,,,2/6,,3,4,2,,1V35[16:3],,
{16}1,,5,,,,7V15[8:2],,7,,5>8[16:4],,4,,2h[8:3],,
{16},,,,6b,,1,,7,8,7,8,7,,6,,
{16}7/5,,3
,4,2,,1/7,,6v7[8:1],5,7<2[16:3],,3,,1h[16:8],,
{16},,8,7,6b,,,,4,5,3-8[8:1],,2/4,,5-1[8:1],,
{16},,2/5,,3,,4-2[8:1],,2-5[8:1],,5<3[8:2],,6,,7h[16:4],,
{16},,,,8b/6b,,,,3,4,3,4,3,4,3,4,
{16}2,2/5,,6,6/3,,2,,7,1,,1,7,,2h[8:2]/6h[8:2],,
{16},,{24},7/3,8/4,1b/5b,,,,,,{16}6,5,6,5,6,,7V51[16:3],,
{16},,7/1,,2,,3h[8:2],,1,,8V62[16:3],,7,,6/8,,
{16},,5,6,7,8,4,3,2,1,8,1,8,1,8,,
{16}7,7/4,,3,3/6,,7,,2,8,,8,2,,7h[8:2]/3h[8:2],,
{16},,{24},2/6,1/5,8b/4b,,,,,,{16}3,4,3,4,3,,2V48[16:3],,
{16},,8,7,6-2[8:1],,,,3/6,,4,,5/1,,{24}8h[8:5]/4,3,2,
{24}1,7,6,5,4,3,2,1,7,6,5,4,{16}3b,,,,,,,,
{16}7,5,7,5,7,5,7,5,8,6,8,6,8,,1/4,,
{16},,2,4,2,4,2,4,1,3,1,3,1,3,1,,
{16}8-4[8:1]/6-4[8:1],,,,8/6,,,,1/3,,8V61[16:3]/2V41[16:3],,,,8/2,,
{16},,2,8,2,8,3,7,3,7,4,6,4,6,,,
{16}7h[8:4]/5,,,,1,,1,,3h[8:2],,,,8,,6/1w5[8:1],,
{16},,1b,,,,,,,,5,,6/4,,7-3[8:1]/5,,
{16},,7,,2,4,2,4,2,,1/6,,2/7,,8/3,,
{16},,8/3,,2/7,,1/6,,8/5,,7/4,,6/3,,1V37[16:3],,
{16},,4,,6h[8:2],,,,8,,7/2,,,,1,8,
{16}1,8,1,8,1,8,1,8,1,8,1,8,1,8,1,8,
{16}1,8,1,8,1,8,1,8,1,8,1,8,1,8,1,8,
{16}1,8,1,8,1,8,1,8,1,8,1,8,1,,6V84[16:3],,
{16},,1/6,,3,,,,1/2,,8/4,,6/2>8[8:10],,5/3,,
{8},,,,,,,,
{8}4,,4,,{32}4,5,6,7,8,1,2,3,4,5,6,7,
{8}8,6/2,4/3,6/1,5-8[8:1]*-2[8:1]/4,2-5[8:1]/8-5[8:1],5w1[1:6],,
{1},
{1},
{1},
{1},
{1},
{1},E
