&title=ライアーメイデン
&artist=ヤバス/りぃふ
&first=-0.055
&des=9V_Y2-6
&lv_5=13
&inote_5=(175){8},,,,,,,,,,,,,,,,
{16},
{8}6h[4:1],,5,6h[2:1],,4,,,6h[4:1],,5,6h[2:1],,4,,,6-4[8:1],,4,,2h[4:1],,4,,3h[8:3],,5,6-4[8:1],,2,,,3h[4:1],,4,3h[2:1],,5,,,3h[4:1],,4,3h[2:1],,5,,5,3-5[8:1],,7-1[8:1],,2-6[8:1],,8,8h[4:1],,5,4,3,2qq8[8:1]/7<5[8:1],,,,1,,34,34,,6,5,7,4,,78,78,,2,1,3,8<5[8:1],,5,,4>1[8:1],,1,,8z4[4:1],1,2,3,,2,,7,56,,3,4h[4:1],,1,2,3,5h[8:1],4,,3/6h[4:1],,7,7,8,1>4[8:1],,1,,1<6[8:1],,1,,4,3,2,1,5/1qq7[8:1]*pp3[8:1],,,,56,,7,4,56,,47,,3,24,,3,1-4[8:1]/5,,,,.34,,2,5,34,,25,,6,57,,6,/8-5[8:1]/4,,,,56,,7,4,5h[8:1]/6h[8:1],,47,,1h[4:1],8h[8:1],,2-5[8:1],1-6[8:1],,,,2,,4/2-4[8:1],,5-2[8:1],,3,,4-1[8:1],,8w4[8:1]/4,,8b,,,3,4b/8b<5[8:1],,1/8,,1>4[8:1]/5,,81,,7<4[8:1]/4,,87,,1-4[8:1]/5,,8p4[4:1]/1,,4p8[4:1],,8p4[4:1],,4p8[4:1],,8,,2>5[8:1],,1,,6-1[8:1]/5,,2,,3-5[8:1]/7,,3/8b,,4-1[8:1]/7,,4/8b,,3-5[8:1]/7,,3/8b,,4-1[8:1]/7,,8b/4,,7b-4[8:1]/4b,,7/8-3[8:1],,8/5-8[8:1],,5b/1h[4:1],,7b<4[8:1],,3pp3[8:2]*qq3[8:2],,3,,,,4/2-4[8:1],,12,,7-5[8:1]/8,,57,4,3-1[8:1],,34,,5-7[8:1],,45,3,2-4[8:1],,12,,7-5[8:1]/5,,78,,2-4[8:1]/6,,4b/2b-6[8:1],,2b/7b,,8b,,4-1[8:1]/7,,4/8b,,3-5[8:1]/7,,3/8b,,4-1[8:1]/7,,8b/4,,3-5[8:1]/7,,3/8b,,7<4[4:1],,4>1[4:1],,1<6[4:1],,6,,4-7[8:1],,2pp2[4:1]*qq2[4:1],,2,,,,7h[4:1],,5-8[4:1],,4h[4:1]/5,,,,7h[4:1],,8q5[4:1],,1h[4:1]/8,,,,7h[4:1],,4q1[4:1],,3h[4:1]/4,,,,7h[4:1],,1>4[4:1],,2h[4:1]/1,,,,7-4[8:1],,5,,2-5[8:1],,4,,6-1[8:1],,5,,3-8[8:1],,4,,57,,15,,56,,53,6,57,,25,,8-4[8:1]/4-1[8:1],,,,6h[4:1],,5,7h[2:1],,5,,,6h[4:1],,5,7h[2:1],,5,,,6-4[8:1],,3-7[8:1],,6-4[8:1],,3-7[8:1],,5h[8:1],,46,4-1[8:1]/6,,8,,6,5h[4:1],,3,4h[2:1],,3,,3,5h[4:1],,3,4h[2:1],,3,,3,5<8[8:1],,4,,5>2[8:1],,6,,7,1,6,6v4[4:1]/2<6[4:1],,,,,
14,,2,3,14,,23,,6,57,,6,48,,57,,58,,7,6,58,,67,,3,24,,3,15,4,2,,15,,2,4,15,,34,,8,71,,8,26,5,3,,6,6,5,5,47,47,38,,1-5[8:1]/2-4[8:1],,1-7[8:1]/2-6[8:1],,1b/2b,,,2,4b/1b>4[8:1],,8,,8<5[8:1]/5,,1,2,3-6[8:1],,6-2[8:1],,7-4[8:1],,7,,1>4[8:1]/4,,8,,7<4[8:1]/4,,8,1,2-5[8:1],,2/8,,7-4[8:1],,7/3,,2-4[8:1]/4,,7b/2,,2-8[8:1]/4,,2/7b,,2-4[8:1]/4,,7b/2,,2-8[8:1]/4,,2/7b,,6-4[8:1],,3-7[8:1],,
8-2[8:1],,4,,3qq6[8:3],,6,,7h[4:1],,5,4,3>8[8:1],,4,,5V37[4:1],,8,1,2>5[8:1],,8,,7V51[4:1],,5,4,3-6[8:1],,6,,7-2[8:1],,2,3,4-1[8:1],,5b/4-7[8:1],,4/2-5[8:1],,2/8b,,7-5[8:1]/5,,2b/7,,7-1[8:1]/5,,7/2b,,7-5[8:1]/5,,2b/7,,7-1[8:1]/5,,7/2b,,3-5[8:1],,6-2[8:1],,1-7[8:1],,5,,6h[8:2],,3pp3[4:1]*qq3[4:1],,3b,,,,2h[4:1],,4-1[4:1],,5h[4:1]/4,,,,2h[4:1],,1p4[4:1],,8h[4:1]/1,,,,
2h[4:1],,5p8[4:1],,6h[4:1]/5,,,,2h[4:1],,8<5[4:1],,7h[4:1]/8,,,,2-5[8:1],,4,,7-4[8:1],,5,,3-8[8:1],,4,,6-1[8:1],,5,,42,,84,,43,,46,37,2v5[8:1]/8v5[8:1],,2-4[8:1]/8-6[8:1],,2b/8b,,37,,
E
