&title=パメラ
&artist=バルーン
&first=0
&des=crystal
&lv_2=5
&lv_3=7
&lv_4=9+
&lv_5=13
&inote_2=(148){16},{1},,,,,,,,{4}1x,8x,4b/7b,,6,5,3/4,3/4,2h[2:1],,5,,1,1,2,,8,8,7,,7,8,1/2,1/2,3h[2:1],,6,,7h[2:1],,2,,4bh[2:1]/5bh[2:1],,,,
1xh[2:1],,,,B1,,B4,,4,4,3/5,,5,5,4/6,,8xh[2:1],,,,B8,,B5,,7,7,7,,1/8,,1b/8b,,2,2,3,3,4h[2:1],,5,,7,7,6,6,5h[2:1],,4,,2xh[2:1],,,,B2,,B7,,7,,7,,1/6,1,1,,6xh[2:1],,,,B6,,B3,,2>7[4:5],,,,,,,,3,4,5,6,3,4,5,6,7h[2:1],,1,,2h[2:1],,8,,3,4,5,6,3,4,5,6,7q4[4:3],,,,,,3x/5x,,
4bh[2:1],,5,5,2,2,2,,1/8,,7/8,,3,3,3,,5bh[2:1],,4,4,7,7,7,,8/1,8,8,,1h[2:1],,6,,
,A7,,E8,,E2,,A2,,1x,,1x,,8x,,8x,,A3,,E4,,E6,,A6,,5x,,5x,4xh[1:1],,,,5,6,7,8,4,3,2,1,7/8,,5/6,,1/2,,3/4,,3^8[4:5],,,,,,,,6p4[4:5],,,,,,,,
5bh[2:1],,1,1,6,6,6,,3/4,,2/5,,7,7,7,,4bh[2:1],,8,8,3,3,3,,2,,1,,6,5,4,3,2bh[2:1],,7,7,1/8,1/8,1/8,,4h[2:1],,6,,5h[2:1],,3,,7bh[2:1],,2,2,8/1,8/1,8/1,,4,,4h[2:1],,5,5,5,,2h[2:3],,,,,,7,E
&inote_3=(148){16},{1},,,,,{4}1,,8,,1,,8,,2,,7,,4/5,4/5,4b/5b,,5,7,4,2,5,5,5,,4,2,5,7,4h[2:1],,6,,8,8,7/8,,6,6,5/4,,1,1,1/2,,3bh[2:1]/4bh[2:1],,,,
6h[1:2],,4,,3,3,3,,2,2,1,,7/8,8,7/8,,3h[1:2],,5,,6,6,6,,7,8,1,2,3h[2:1],,5b,,1,3,2,2,1,1/8,2,,8,6,7,7,8,8/1,7,,1h[1:2],,7,,5,5,5,,6h[2:1],,3h[2:1],,,3,3,,8h[1:2],,2,,4,4,4,,3h[4:1],,3,,4h[4:1]/6h[4:1],,4x/6x,,
A3,A4,A5,A6,B3,B4,B5,B6,7h[2:1],,1,,2/8,2/8,3,,A2,A1,A8,A7,B2,B1,B8,B7,6x^3[4:3],,,,,,3x/6x,,7b/8b,,7/8,7/8,1/6,1/6,7/8,,2^5[4:3],,,,,,4/6,,1b/2b,,1/2,1/2,3/8,3/8,1/2,,7<1[4:5],,,,,,8bx,,
7,7,,7/8,,1/8,,1/2,3xh[1:1],,5,5,6h[1:1],,4,4,3,3,,3/4,,4/5,,5/6,7xp5[4:5],,,,,,,,1,2,1,8,7,8,1,2,3,,4h[2:1]/6,6,6,,5,,3x,3,3/4,3/4,6x,6,5/6,5/6,4x-1[4:3]/5x-8[4:3],,,,,,1x/8x,,
3b/4b,,3/6,3/6,2/5,2/5,1/4,,6^1[4:3],,,,,,2/8,,6b/5b,,6/3,6/3,7/4,7/4,8/5,,2h[4:1],,2,2,E4,C,E8f,,{8}1bh[4:1]/8bh[4:1],,,,7,8,7,,6,,5,,6h[4:1],,,,4/5,,4/5,,3/4,,3/4,,2,,3,,5h[4:1]/4,,,,8bh[4:1]/1bh[4:1],,,,2,1,2,,3,,4,,3h[4:1],,,,{4}4>6[4:5],,,,,,5bx,,5<3[4:5],,,,,,4x,E
&inote_4=(148){16},{1},,,,,{8}1,,2,,3,,4,,5,,6,,7,,8,,1,,2,,3,,4,,5x,,5x,,5b,,,,6,6,8,,3,3,1,,5/7,,5/7,,2/4,,2/4,,3,3,1,,6,6,8,,7h[2:1],,,,4h[4:1],,7,,6,6,6,,5,5,5,,4h[4:1],,3,,4h[4:1],,5,,3,3,3,,4,4,4,,5xh[2:1],,,,4b,,,,
1/7,,1/7,,8,8,8,,7-4[4:1],,,,1,,2,,3,3,2,,1h[4:1],,,,7/8,,1/6,,2h[4:1]/5h[4:1],,,,3/5,,3/5,,4,4,4,,6q2[4:1],,,,3,,3,,7h[4:1],,,,7/1,,7/4,,6,,6,,2b/5b,,,,8,8,7,,1,1,2,,5/6,,3/4,,5/6,,3/4,,6,6,7,,3,3,2,,1h[2:1]/8h[4:3],,,,,,,,2/6,,2/6,,1,8,7,,6/2,,6/2,,6/2,,6/2,,5,,4,,3,3,4,4,3/5^8[4:1],,,,,,,,3/7,,3/7,,8,1,2,,3/7,,3/7,,2/6,,2/6,,1pp4[4:3]/7qq4[4:3],,,,,,,,,,,,4,,3/5,,
3,3,4,,4,4,5,,5,5,6,,6,6,7,,8p4[2:1]*q4[2:1],,,,,,,,3h[4:1],,5h[4:1],,7h[4:1],,1,,2,2,1,,1,1,8,,8,8,7,,7,7,6,,5v2[2:1]*v8[2:1],,,,,,,,Ch[2:1],,,,,,,,
7b,,3b,,4,5,4,5,4h[2:1],,6,,7,,8,8,1,,8h[4:1],,7,,8,,1-5[4:1]/2,2,2,,,,,,6b,,2b,,1,8,1,8,1h[2:1],,7,,6,,,5x,5,,,7x/1x,7/1,,,2x/8x,2-5b[4:1]/8-5b[4:1],,,,,,,,
D7,,A7,,E8,,A8,,B1,,A1,,E3,,A2,,7,,6,,1,,8,,3,,2,,5,,4,,D3,,A3,,E4,,A4,,B5,,A5,,E7,,A6,,7h[4:1],,8,,1,,,,2h[4:1],,1,,8,,,,7,7,1/8,,2,2,1/8,,7,7,6/5,,4,4,2/3,,3^6[4:1],,,,7,,7,,7V53[4:1],,,,2,,2,,2h[2:1],,,,1h[2:1],,,,8h[2:1],,,,7h[2:1],,,,6h[4:1],,5h[4:1],,4h[4:1],,3h[4:1],,Ch[2:1],,,,,,,,
1b,,8b,,2,7,2,7,2h[2:1],,6,,5,,3/4,3/4,2,,5/6,5/6,7,,8h[4:3],,2,2,3,3,4,,,,5b,,6b,,3,7,3,7,3h[2:1],,8,,1h[2:1],,,2,3,,,1/8,1/8,1/8,2x^4-1b[2:1]/7x^5-8b[2:1],,,,,,,,,,
7b/8b,,5b/6b,,2h[4:1]/1,1,1,,3h[2:1]/4,4,6,6,4,,2/1,2,2/1,,7/8,7,7/8,,6h[2:1],,5,3,5,3,3/5,,,,1b/2b,,3b/4b,,7h[4:1]/8,8,8,,6h[2:1]/1,1,2,2,3,,,4x,4,,,2x/8x,2/8,,,1x/7x,1^4b[4:1]/7^4b[4:1],,,,,,,2x/8x,2h[4:5]/8h[4:5],,,,,,,,,,,,E7/B6/E3/B3,E
&inote_5=(148){16},{1},,,,,{8}5,5h[4:1],,,6,6h[4:1],,,7,7h[4:1],,,8,8h[4:1],,,1,1h[4:1],,,2,2h[4:1],,,3x-1[8:1]/4x-6[8:1],,3x-7[8:1]/4x-8[8:1],,4b/3b,,,,
7,4,2,5,8,6,1,3,5/6,5/6,8/2,1/7,3/4,3/4,7/8,,2,5,7,4,1,3,8,6,5h[4:1],,4h[2:1],,7,,7,,8,7,1,2,6,5,3,4,4/5,4/5,2/3,2/3,1/8,7/8,6/7,,1,2,8,7,3,4,6,5,1q4[8:5],,1,,8-5[8:1],,8b,,
{8}3xh[8:3],,,6,6,6/2,6/1,,1^4[8:1]/8,1/8,1^6[8:1]/8,,1/2h[8:3],,,7,8,8,3,3,2,2,6pp2[2:1],6,6,,4,4,3h[2:1],,,,7xh[8:3],,,2,2,2/6,2/5,1,1,1,2/7,3/6,4/5h[8:3],,,7,7,8,8,6,6,5,5,1/3,1h[8:1]/3h[8:1],,5h[8:1]/7h[8:1],,1bh[4:1]/3bh[4:1],,,,2-5[8:1],2,2/7-4[8:1],7,7/1,1,1/8,8,8/2-5[8:1],2,2/7-4[8:1],7,7/1h[4:1],,8h[4:1],,1^4[8:1],1,1/8^5[8:1],8,8/2,2,2/7,7,7/1h[4:1],,8h[4:1],,7-2[8:1]*-4[8:1],,7b,,
3xh[8:3],,,6,{16}3,4,3,4,{8}3,5h[8:3],8q4[8:1],,8p4[8:1],,8/3h[8:3],,,6,6,6,2/8,2/8,6,6,1pp4[2:1]/7,1/7,1/7,,7,6,5h[2:1],,,,7xh[8:3],,,2,{16}7,8,7,8,{8}7,1,2h[4:1]/6h[4:1],,,,7^4[8:1]/3^8[8:1],,3/7,,3/7,3/7,8h[4:1],,5,5,4/6,4/6,{16}3x,3x,{8}3xh[8:5],7>5[4:1],,7b,,,,
4^7[8:1],4,3q7[8:1]/D6,3,2v7[8:1]/B5,2,1-7[8:1]/C,1,B8/4^7[8:1],4,3q7[8:1]/D6,3,2v7[8:1]/B5,2,1h[4:1]/C,,7h[2:1],,,,6h[8:1],,6h[2:1],,4,,3,,5/2,,5/2,,5^2[8:1],5,6p2[8:1]/D4,6,7v2[8:1]/B4,7,8-2[8:1]/C,8,B1/5^2[8:1],5,6p2[8:1]/D4,6,7v2[8:1]/B4,7,8h[4:1]/C,,Ch[2:1],,,,,,,,{16}1,2,3,4,,,{8}8,7,6,5-1[8:1],,
5b-3[8:1]*-7[8:1],,5b,,2,2,8,8,1/7,6,3/5,2,1/7,,8-5[8:1]/7-2[8:1],7/8,7/8,,3-8[8:1],,3/6-1[8:1],,6/3,,3/7,4/8,1/5,2/6,5h[4:1]/1,,1^4[8:1]*^6[8:1],,1b-5[8:1],,1b,,6,6,4,4,2/5,1/7,2/5,1/7,2h[2:1]/5,,,7,8h[8:3],,,2-6[8:1],1,8^6-1^2-5^3[8:5]/2,,8,E8,E2,C,E6,7bh[2:1],,,,
1,1,2/A7,2,3,3,4/E8,4,5,5,6/B1,6,7,7,8V64[4:1]/A2,,8,,1V35[4:1],,1,,8<2[4:1],,8,,1>7[4:1],,1,,8h[4:1],,7,7,6/A3,6,5,5,4/B4,4,3,3,2/B5,2,1,1,8<5[8:1]/A6,,8p6[4:1]/1>5[4:1],,1/8,,,,1>4[8:1],,1q3[4:1]/8<4[4:1],,8/1,,,,2/5,,7,7,7/8,7/8,1/8,1/8,1,1,1/2,1/2,2,2,2/7,2/7,7,,5h[2:3]/A2,,,,A6,,,,E4,,,,E8,,5<1[4:1],,1b>5[4:1],,5<1[4:1],,1-5[4:1],,5>1[4:1],,1b<5[4:1],,5>1[4:1],,1-5[4:1],,5,,{16}3,2,1,8,5,6,7,8,3,2,1,8,5,6,7,8,{8}1xh[8:1],4,,8,1/7,2/6,5v3[8:1]*v7[8:1]/3,,
5b-3^2[8:1]*-7^8[8:1],,5b,,{16}2,8,{8}2,7,7,5/6,4,3/2,1,7/8,,5-1[8:1]/6-2[8:1],4/7,5/6,,4-8[8:1],,1-5[8:1]/4,,1/4,,4/8,4/8,1/6,1/6,3h[4:1]/8,,8v1[8:1]*v7[8:1],,8bq5[8:1]*p3[8:1],,8b,,{16}4,4,{8}4,3/5,3/5,1/6,3/8,1/6,3/8,1h[2:1]/6,,,6,5h[8:3],,,4,3p6[8:1],2^7[8:1],3,2,3x,3x,6/1,6/1,{32}7,8,1,2,3,4,5,6,{8}7x-5[8:1]/1x-5[8:1],,
1b-3[8:1]/7b-3[8:1],,1b/7b,,{16}2^7[8:1],2,{8}2,2/6^3[8:1],6,2^7[8:1]/6,2,6^3[8:1]/2,6,2h[4:1]/6,,{16}7,6,5,4,3h[4:1],,,,1,2,3,4,{8}5h[4:1],,7,7,8-3[8:1],8-5[8:1],8,8,2,,1q5[8:1]/5q1[8:1],,1b^6[8:1]/5b^2[8:1],,1b/5b,,{16}1-4[8:1],1,{8}1,1/5-8[8:1],5,1-4[8:1]/5,1,5-8[8:1]/1,5,1h[2:1]/5,,,{16}6,7,{8}8h[8:3],,,{16}5-8[8:1],4,3,2,{8}1^3-8^7-4^6[8:5]/5,,1,E2,E8,C,E4,8bh[2:1],,,4,3h[8:3],,,5-1[8:1],6,7-3[8:1]/5,,7,E2/A2/A1/D2,E6/A6/A5/D6,E8/A8/A7/D8,E4/A4/A3/D4,Ch[4:1],,E
