&title=Heavenly Me
&artist=AIYUE/理名/塞壬唱片-MSR
&first=0.64
&des=Fdagio雪茶
&lv_5=13
&inote_5=(135){16}1,2h[16:3],,8,{8}8,{16}1-4[16:1],7,,8,{8}1,,3,
{16}6h[8:1],3,,2,{8}3,{16}8,C,,7,{8}C,,,E8,
E1,E2,{16}B6,B3,,C,{8}C,,7,
{16}5,4,3,2,{8}1,{16}7,Ch[16:3],,,,,,,{8}1,
{16}1,2,,6,7,,,7>2[0.3333##0.1111],{8}7,7,{16},,7>2[0.2222##0.2222],7h[16:3],
,,,,6-3[0.2222##0.1111],6h[16:3],,,,7,2,8,{8}1,{16}B1,C,
,B7,{8}Cf,,,,,,B7,
E1,B2,{16}E5,,,Cfh[4:1],,,,,,,,,,,,,8,
7,{8}8,{16}1,8,,7,{8}2>5[0.2222##0.1111],2,
{16}E8,C,,,1,2,3h[24:1],6,7,8,1,2,{8}B6,B2,
{16}B7/B6,B3/B2,,,7,8,{8}7-3[0.2222##0.1111],{16}B7,B3,,,1-5[8:1],8,2,1,
B1,C,,,{4}3h[2:1]/7h[2:1],{8},,,8b/3b,
8b/3b,7b/2b,2>4[0.2222##0.1111],2/7,7<5[0.2222##0.1111],7/2,,2,
6,6/2-6[0.2222##0.1111],2,{16}7-3[16:1],8,,1,{8}7,,2/8-4[0.2222##0.1111],
8/1-5[0.2222##0.1111],1/7-3[0.2222##0.1111],7/2-6[0.2222##0.1111],2/7-3[0.2222##0.1111],7/1-5[0.2222##0.1111],1,,7/2-5[0.2222##0.1111],
2/7-4[0.2222##0.1111],7,1bx,{16}2x,3x,,8x/6x,{8}7bx/1bx,,3/5,
2/4,2/7<5[0.2222##0.1111],7/2>4[16:1],1,2/7,8,,4,
2,8,1>4[0.6667##0.1111]/8<5[0.6667##0.1111],{16}7h[16:1],2,,8/1,{8}8/1/D1f,,1/B5,
2/B6,3/B7,4/B8,5/B1,6/B2,7/B3,,2h[4:1],
B7/E8/E7,E1/B8/B1,B2/B3/E3,{16}B7/E7/B6,B7/E7/B6,,Cfh[16:1],,,,,{8}1>4[0.2222##0.1111],
1<5[0.2222##0.1111],1-4[0.2222##0.1111],1-6[0.2222##0.1111],1>4[0.2222##0.1111],1<2[0.2222##0.4444],1,,,,2/7,
{4}1h[16:5]/8h[16:5],{16},B1/B8,{8}C,,4>1[0.2222##0.2222],
1-5[0.2222##0.2222],5<8[0.2222##0.2222],8-4[0.2222##0.2222],4>5[0.2222##0.4444],,,,6,
3/7,2/6,8,{16}7/3h[16:1],7,,1,{8}8b/2b,,6/2,
7/1,6/2>4[0.2222##0.1111],A2,8<5[0.2222##0.2222],A8,1,,5,
3/6,8<5[0.2222##0.1111],8,{16}2,2/5,,7,{8}7/Cf,,7-4[0.2222##0.1111],
7/2-5[0.2222##0.1111],2/8-4[0.2222##0.1111],8/3-6[0.2222##0.1111],3/7,6x-3[0.2222##0.1111],6bx/8,,7h[8:1],
3h[8:1],8h[8:1],2h[8:1],{16}7h[16:1],1h[8:1],,8,{8}2/7,,1z5b[8:31]/8s4b[8:31],
,8b/1b,{1},,,,{16}7,
8,{8}7,{16}8,1,,6,{8}6-2<3[0.2222##0.4444],6,
{16},,,,6,1,{8}6,{16}7,1,,2,{8}8-5[8:1]*-3[8:1],{16}1,7,
{4}8,{16}1-4[16:1],7-4[16:1],8,8,1,7,,,2-4[16:1],8-6[16:1],1,1,
2,8,,E4,{8}C,{16}E6,B7,,6-2<3[0.2222##0.7778],{8}6,{16},,,,,,,,1,
2,3,4,,4,,5q4[0.2222##0.3333],{8}5,6,
{4}8b,{16}1,2,3,4,5,6,{8}7,{16}1bx,2,3,4,
5,6,7,8,{4}1bx-4b[8:9],,,,,,,,1bx-4<5[8:9]/8bxp1[8:9],
{8},,,,,,,,,,,7,
{16}4,7,4,7,4,,,5,7,4,{8}B7/B2/C/E6/B6/E4/B3,{16},,1-4[0.3333##0.1111]*-6[0.3333##0.1111],8,
2,1,,,8>3[0.3333##0.1111]*<5[0.3333##0.1111],8,8,8,,B5,B3,B7,{8}B1,7h[24:1],
{16}6-2<3[0.2222##0.6667],8,{8}6,,,,,,2,
{16}3,4,{8}5,{16}6<2[0.3333##0.3333],,,6,,,{8}7,,3/6,
{4}2<5[4:3]/7>4[4:3],2b/7b,{16},,,,,,,,,,,,1,
,,1,{8}8,2,{16}1>4[8:1],8,{8}7,
{4}1,{16}8,,,8,{8}1,7,{16}8<5[8:1],1,{8}2,
{4}8,{16}5,,,2,{8}6,7,{16}8-4[16:1],1,{8}2,
{4}8,{16}8h[16:3],1,,2h[16:3],,1,{8}1,,1b/6b,
1b/6b,2b/7b,7<5[0.2222##0.1111],7/2,2>4[0.2222##0.1111],2/7,,6/4,
3/7,3/7-3[0.2222##0.1111],7/3,{16}B5/B3,B6/B2,,Cfh[16:1],,,,,{8}2/8-4[0.2222##0.1111],
8/1-5[0.2222##0.1111],1/7-3[0.2222##0.1111],7/2-6[0.2222##0.1111],2/7-3[0.2222##0.1111],7/1-5[0.2222##0.1111],1,,2/7-5[0.2222##0.1111],
7/2-4[0.2222##0.1111],2,8bx,{16}7x,6x,,1x/3x,{8}2x/8x,,6/4,
7/5,7/2>4[0.2222##0.1111],2/7<5[16:1],8,7/2,1,,5,
7,1,8<5[0.6667##0.1111]/1>4[0.6667##0.1111],{16}2h[16:1],7,,1/8,{8}1/8/D1f,,4/B8,
3/B7,2/B6,1/B5,8/B4,7/B3,6/B2,,7h[4:1],
B2/E2/E3,E1/B1/B8,B7/B6/E7,{16}B2/E3/B3,B2/B3/E3,,Cfh[16:1],,,,,{8}1p7b[8:15]/5p3b[8:15],
,1bx/5bx,,,,,,,,,,,,,,,,,{4}8<4[2:1],
8,8,
8,5>1[2:1],5,5V71[1:1],
5,5,5,5,
5,8-6[8:1],8,3z7>3[8:13]/6s2<6[8:13],
{2}6/3,C,
{4}C,{16},,,,,,,,B2,B8,B3,B7,
B4,B6,,,{4}5,{8}7h[8:1],8,2/6,{16}6,8,
{8}7<4[4:1],7,7/4,3,2,1,8,{16}7,6,
{8}5,2,1-5[0.3333##0.1111],{16}8,1,,,,,,7,8,7,
{8}1v4[16:1],8,{4}1,{8},8,{16}4,3,{8}2,
{4}2w6[16:1],2b/C,{8},7h[8:1],1-5[16:1],{16}1,7,
{4}1,6,{8}4/6,7,{16}4,3,2,5,
6,7,3,2,{8}1/5b,Ch[16:1],,7bx,,6z2[0.2222##0.4444],
6,6,{4}6,{8}B3/B4/E4,E8/B7/B8,,B7/E7/B6/B2/B3/E3/C,
,,7h[8:1],1h[8:1],8h[8:1],2h[4:1],,Ch[8:1],
,,B6/E6/B5,E2/B1/B2,Ch[8:1],,,3/6,
2/7,1/8-4[0.2222##0.1111],8b,2w6b[16:1],4/8,2b,,4>1[0.2222##0.1111],
4<8[0.2222##0.1111],4,1h[8:1],{16}8,8w4[0.3333##0.1111],,1/7,{8}8/Cf,,2/8-4[0.2222##0.1111],
8/1-5[0.2222##0.1111],1/7,6/4,7/3,2-6[0.2222##0.1111]/8-4[0.2222##0.1111],2/8,,7h[8:1],
2h[8:1],8h[8:1],1h[8:1],{16}7h[16:1],2,,1h[16:1]/8h[16:1],{8}Cf/B3/B2/B1/B8/B7/B6,,2/6,
3/5,2/6<8[0.2222##0.1111],A6,4>1[0.2222##0.2222],A4,8b,,4,
6/2,4>1[0.2222##0.1111],4,{16}6,7/8,,2,{8}3/Cf,,8<5[0.2222##0.1111],
8>3[0.2222##0.1111],8-5[0.2222##0.1111],8-3[0.2222##0.1111],8<5[0.2222##0.1111],8>4[0.2222##0.1111],8,,6,
2-5[0.2222##0.1111],2/7,7/3,{16}2/8,3/7,,B7/E7/B6/B2/B3/E3/Cfh[16:1],,,,,{8}5<8[0.2222##0.2222],
8-4[0.2222##0.2222],4>1[0.2222##0.2222],1-5[0.2222##0.2222],5<4[0.2222##0.4444],,,,,,7/2,
{4}1h[8:3]/8h[8:3],{8},Cf/B7/B6/E7/E3/B3/B2,,6/1-5[0.2222##0.1111],
1/7-3[0.2222##0.1111],7/2-5[0.2222##0.1111],2/8-4[0.2222##0.1111],8/2-4[0.2222##0.1111],2/7v5[0.2222##0.2222],7,,2h[8:1],
B7/E7/B6,B2/B3/E3,E8/B7/B8,{16}B6/E6/B5,B6/E6/B5,,Cfh[16:1],,,,,{8}7/8,
7/1,7/2,3/7<5[0.2222##0.1111],A7,2-4[0.2222##0.1111],2/8,,3/6-3[0.2222##0.1111],
6/2-7[0.2222##0.1111],2,8b,{16}2,3,,8,{8}7/3,,1/2,
8/2>4[16:1],7,2/7<5[16:1],8,7/2,1bx/6bx,,B8/E8/B7,
B3/E4/B4,B7/E7/B6,E2/B1/B2,{16}B6/E6/B5,B6/E6/B5,,Cfh[16:1],,,,,{8}8q5b[8:29]/4q1b[8:29],
,8b/4b,{1},,,{4},,{8},3z7b[4:15]/6s2b[4:15],
,6b/3b,{1},,,{4},,,{16}8,
7h[16:3],,1,{8}1,{16}8-5[16:1],2,,1,{8}8,,6,
{16}3h[8:1],6,,6,{8}7,{16}1,C,,2,{8}C,,,E2,
E1,E8,{16}B3,B6,,C,{8}C,,4,
{16}5,6,7,8,{8}2,{16}2h[4:1],Ch[16:3],,,,,,,{8}1bxw5b[4:7],
,1bx,
E
