&title=Les Enfants du Paradis
&artist=szak
&first=0
&des=-
&lv_5=0
&inote_5=(140){8},,,,{32},,2,3,{16}4,6,5,6,4,5,
3h[16:4],,,2h[16:1],,,,,6h[16:4],,,7h[16:1],,,,,
2h[16:4],,,3h[16:1],,,,,7h[16:4],,6h[16:1],,6h[16:2],,,,
3h[16:4],,,2h[16:1],,,2h[16:2],,6h[16:4],,,7h[16:1],,,7h[16:1],,
2h[16:4],,3h[16:1],,,3h[16:1],,,7h[16:4],,6h[16:1],,6h[16:2],,7h[16:2],,
3h[16:4],,,2h[16:1],,,2h[16:2],,6h[16:4],,,7h[16:1],,,7h[16:2],,
2h[16:4],,,3h[16:1],,3h[16:1],,,7h[16:4],,6h[16:1],,6h[16:2],,,,
3h[16:4],,,2h[16:1],,,2h[16:2],,6h[16:4],,,7h[16:1],,,7h[16:2],,
2h[16:4],,3h[16:1],,,3h[16:1],,,7h[16:4],,,6h[16:1],,,,,
3,4,2h[16:2],5h[16:1],,,,,6,5,7h[16:2],4h[16:1],,,,,
2,5,3h[16:2],4h[16:1],,,,,7,4,6h[16:1],5h[16:1],1x,,,,
3,4,2h[16:2],5h[16:1],,,2h[16:1],,6,5,7h[16:2],4h[16:1],,,7h[16:1],,
2,5,3h[16:2],4h[16:1],,,,,7,4,6h[16:2],5h[16:1],,,,,
3,4,2h[16:1],5h[16:1],1,8,1,8,6,5,7h[16:2],,1,8,1,8,
2,5,3h[16:1],4h[16:1],1,8,1,8,5,7,2,4,8,6,3,1,
3,4,2h[16:1],5h[16:1],8,8,7,7,4,5,3h[16:1],6h[16:1],1,1,8,8,
5,6,4h[16:1],7h[16:1],2,2,1,1,4x,,,5x,,,6x,,
2V86[8:2],,,,6V42[8:2],,,,2V86[8:2],,,,6V42^1[8:2],,,,
1V75[8:2],,,,5V31[8:2],,,,1V75[8:2],,,,5V31^8[8:2],,,,
8V64[8:2],,,,4V28[8:2],,,,8V64[8:2],,,,4V28^7[8:2],,,,
7V53[8:2],,,,3V17[8:2],,,,7V53[8:2],,,,3,,,,
6<2[8:2],,,,2>6[8:2],,,,6<2[8:2],,,,2>5-7[8:2],,,,
7>3[8:2],,,,3<7[8:2],,,,7>3[8:2],,,,3<6-8[8:2],,,,
8>4[8:2],,,,4<8[8:2],,,,8>4[8:2],,,,4<7-1[8:2],,,,
1>5[8:2],,,,5<1[8:2],,,,1>5[8:2],,,,5x,,,,
2V86[8:2],,,,6V42[8:2],,,,2V86[8:2],1h[16:1],,,6V42^1[8:2],,,,
1V75[8:2],8h[16:1],,,5V31[8:2],,,,1V75[8:2],8h[16:1],,,5V31^8[8:2],,,,
8V64[8:2],7h[16:1],,,4V28[8:2],,,,8V64[8:2],7h[16:1],,,4V28^7[8:2],,,,
7V53[8:2],6h[16:1],,,3V17[8:2],,,,7V53[8:2],6h[16:1],,,3,,,,
6<2[8:2],,,,2>6[8:2],,,,6<2[8:2],7h[16:1],,,2>5-7[8:2],,,,
7>3[8:2],8h[16:1],,,3<7[8:2],,,,7>3[8:2],8h[16:1],,,3<6-8[8:2],,,,
8>4[8:2],1h[16:1],,,4<8[8:2],,,,8>4[8:2],1h[16:1],,,4<7-1[8:2],,,,
1>5[8:2],2h[16:1],,,5<1[8:2],,,,1>5[8:2],2h[16:1],,,5x,,,,
8,,,,2,,,2,{24}4,,4,3,,,13,,,,,,
56,,6,1,,,56,,6,1,,,75,,7,6,,7,1,,,81,,,
2,,2,35,,,61,,,,,,6,,4,5,,3,7,,,1,,25,
,,2,3,,3,4,,4,5,,5,6,,6,7,,7x/1x,,,4,5,,,
{16}2x^7[8:30],,,,2,3,4,5,3,4,5,6,4,5,6,6,
5,4,3,2,6,5,4,3,5,4,3,2,4,3,2,2,
4,5,6,2,4,5,6,3,4,5,6,4,4,5,6,6,
5,4,3,2,6,5,4,3,7x,6,5,4,6,5,4,3,
2x^7[8:24],3,4,5,3,4,5,6,4,4,5,6,3,3,4,5,
6,5,4,3,5,4,3,2,5,5,4,3,6,6,5,4,
3,2,3,4,4,3,4,5,5,4,5,6,6,5,6,7x,
8,8,8,8,8,8,8,8,8,8,8,8x,,,,,
1h[16:3]/2-5[8:1],,,2,3,,,,8h[16:3]/1-5[8:1],,,1,2,,,,
1h[16:3]/2-5[8:1],,,2,3,,3,,8h[16:3]/1-5[8:1],,,1,2,,,,
8h[16:3]/7-4[8:1],,,7,6,,,,1h[16:3]/8-4[8:1],,,8,7,,,,
8h[16:3]/7-4[8:1],,,7,6,,6,,1h[16:3]/8-4[8:1],,,8,7,,,,
8h[16:3]/2-5[8:1],1,,2,3,,,,7h[16:3]/1-5[8:1],8,,1,2,,,,
8h[16:3]/2-5[8:1],1,,2,3,,3,,7h[16:3]/1-5[8:1],8,,1,2,,,,
1h[16:3]/7-4[8:1],8,,7,6,,,,2h[16:3]/8-4[8:1],1,,8,7,,,,
1h[16:3]/7-4[8:1],8,,7,6,,6,,2h[16:3]/8-4[8:1],1,,8,7,,,,
8/2q6[8:1],1,82,3,,,,,7/1q6[8:1],8,71,2,,,,,
8/2q6[8:1],1,82,3,,4,3,2,7/1q6[8:1],8,71,2,,,,,
1/7p3[8:1],8,17,6,,,,,2/8p3[8:1],1,28,7,,,,,
1/7p3[8:1],8,17,6,,5,6,7,2/8p3[8:1],1,28,7,,,,,
8/2q6[8:1],1,82,3,4x,,,,7/1q6[8:1],8,71,2,3x,,,,
8/2q6[8:1],1,82,3,4x,4,3,2,7/1q6[8:1],8,71,2,3x,,,,
1/7p3[8:1],8,17,6,5x,,,,2/8p3[8:1],1,28,7,6x,,,,
1/7p3[8:1],8,17,6,,5,5,,71,8,71,62,3h[8:1]/5h[8:2],,,,
1bqq2[8:2],,,6,1,,4,,5-1[8:1],,4,4,5^2[8:1],,,,
{32}5/8-3[8:1],7,6,5x,{16},,8/6,,1x,,8^5[8:1]/2^5[8:1],,,,82,,,,
1pp8[8:2],,,2,7^4[8:1],,6,,7qq2[8:2],,,3,8V24[8:1],,1,,
8bpp2[8:1]*qq6[8:1],,,,,,,,{32}7,6,5,4,{16}2,2,1x,,37,,
1bq5[8:1]/5bq1[8:1],,,,15,,,,8<4[8:1]/4>8[8:1],,,,8/4q8[8:1],,,,
{32}1^6[8:1]/4,2,3,4x,{16},,15,,3,,1-3[8:1]/4-8[8:1],,,,14,,,,
7^4[8:1],,,2,8p3[8:1],,1,,5-1[8:1]/8,,,2,5,4>5[8:2],3p6[8:1],,
4b,,,,,,,,54,63,72,81,72,,54,,
8bpp7[8:2]/1b,,,3,8,,5,,4-8[8:1],,5,5,4^7[8:1],,,,
{32}4/1-6[8:1],2,3,4x,{16},,1/3,,8x,,1^4[8:1]/7^4[8:1],,,,17,,,,
8qq1[8:2],,,7,2^5[8:1],,3,,2pp7[8:2],,,6,1V75[8:1],,8,,
1bqq7[8:1]*pp3[8:1],,,,,,,,{32}2,3,4,5,{16}7,7,8x,,62,,
8bp4[8:1]/4bp8[8:1],,,,84,,,,1>5[8:1]/5<1[8:1],,,,1/5p1[8:1],,,,
{32}8^3[8:1]/5,7,6,5x,{16},,84,,6,,8-6[8:1]/5-1[8:1],,,,85,,,,
2^5[8:1],,,7,1q6[8:1],,8,,4-8[8:1]/1,,,7,4,5<4[8:2],6q3[8:1],,
5b,,,,,,6b-2[8:1]*-1[8:1],,1bV74[8:2]/2bV41[8:2],,,,,,,,
,,,,,,,,,,,,,,,,
,,,,,,,,,,,,,,,,
,,,,,,,,,,,,,,,,
,,,,,,,,,,,,,,,,
,,,,,,,,,,,,,,,,
,,,,,,,,,,,,,,,,
