&title=天使のクローバー
&artist=MORE MORE JUMP! / DIVELA
&first=0
&des=LiTANiA
&lv_5=13+
&inote_5=(193){4},,,,,,,,,,,,
1<4[8:3]/4,,2<5[8:3],,3>6[8:3],,4>7[8:3],,
{16}5,,,,64,,,,4,,4,,52,,7,7,4,6,5,6,4,6,5,6,4,6,5,6,1,,,,
4-2[8:1]/2,,,5,4,,8,,,,6,,7/3>7[8:2],,,,7<3[8:2],,,,3,,,,7,,,,15,,,,
4-1[8:1]/2,,,5,4,,8,,,,6,,7/3>7[8:2],,,,7<3[8:2],,,,3,,,,7,,,,15,,,,
4-8[8:1]/2,,,5,4,,7,,,,6,,7/3>7[8:2],,,,7<3[8:2],,,,3,,,,7,,,,15,,,,
3/7-4[8:1],,,,8,,,,6/2>5[8:1],,,,1,,1qq6[8:4],,,,5,,4,,3,,2,,1b,,1b,,,,
{8},,4v1[8:1],,7v4[8:1],,,2,2h[8:2],,5,5pp8[8:3],,1v4[8:1],,,
,,6-1[8:1],,2-5[8:1],,,6,6<2[8:2],,2v4[8:2],2,,3h[128:1],3h[128:1],,
5,4,6,7<5[8:1],,4,3,2>4[8:1],,6,7,8<6[8:1],,5,5,,
4,5,3,2>4[8:1],,5,6,7<5[8:1],,3,2,1>3[8:1],,4,4,,
47,,5-8[8:1],,2-5[8:1],,,7,6-8[8:1],,3,4-2[8:1],,6,5-1[8:1],1,
,,3-8[8:1],,7-4[8:1],,,3,3>7[8:2],,7q4[8:2],7,,5h[128:1],5h[128:1],,
4,5,3,2>4[8:1],,5,6,7<5[8:1],,3,2,1>3[8:1],,4,4,,
5,4,6,7<5[8:1],,4,3,2,15,6,6,47,6,6,{16}3,5,3,5,
{8}4bV25[8:3],,6,5bV38[8:3],,7,6b,,
5h[8:2],,1,5h[8:2],,1,5h[8:1],1,
5bV74[8:3],,3,4bV61[8:3],,2,3b,,
4,6,5,47,3,4,{16}2,5,2,5,
{8}3>8[8:1],6,5b/3b,,7/3>8[8:1],6,5b/3b,,4-8[8:1],,3,,2-5[8:1],,7,,
6<1[8:1],3,4b/6b,,2/6<1[8:1],3,4b/6b,,5-1[8:1],,6,,7-4[8:1],,2,,
{16}15,,2,4,2,,15,,4-7[16:3],,3,,2q5[8:4],,,,,,,,,,,,6,,,,7,,,,
84,,7,5,7,,84,,5qq5[16:6],,6,,7pp5[8:4],,,,,,,,,,,,{8}4,,3,,
6-4[8:1]/2h[8:1],,2h[8:1],,5-8[8:1]/1h[8:1],,1h[8:1],,7-4[8:1]/2h[8:1],,2h[8:1],,5-1[8:1]/3h[8:1],,3h[8:1],,48,7,26,3,47,6,1V72[8:3]/5V36[8:3],26,,,,,
4-1[8:1]/8-5[8:1],,48,,
{16}6b/2b-5[16:2],,,5b-1[8:1],2,,8b,,,,7,,6V84[8:2],,,,4w8[8:1],,,,,,,,2-5[8:1]/6,,,,5-3[12:1],,,,
8-4[8:1],,,,28,,1-3[8:1],,,,1/7,,8-4[8:1],,8,,3,,,,1,,6,5,6,,3,4,3,,45,,
3/7-4[8:1],,4,,7,,8-3[8:1],,,,58,,6>7[16:6],,7,,2h[8:3],,,,,,,,4-2[8:1],,,,4/5-7[8:1],,,,
15,,,,3V52[32:9],,25,,,,,,6V48[32:9],,7,,,,,,1,,1,,2,4,3,,7,5,6,,
{16}3b/7b<4[16:2],,,4b-8[8:1],7,,1b,,,,2,,3V15[8:2],,4,,5-2[16:2]*-8[8:1],,,,,,,,7-4[8:1]/3,,,,4-6[12:1],,,,
1-5[8:1],,,,71,,8-4[8:1],,,,8/3,,2-5[8:1],,2,,6,,,,8,,3,4,2,,6,5,7,,18,,
6/2-6[8:1],,5,,2,,8,,,,36,,4>2[12:1]/5<7[12:1],,,,4z8[8:1]/5s1[8:1],,,,,,,,7<4[8:1]/4>1[8:1],,,,4w8[8:1]/7,,,,
4,,,,26,,2h[8:1]/6h[8:1],,,,7,5,6,,2,4,3,,8,,18,,27,,3,6,4,5,1,8,1,,
2b/7b,,,,3b-1[8:1]/4b-8[8:1],,,,3b/4b,,,,7,,5,,
8b<5[8:1],,,,8bp4[8:1],,4,,8bv3[8:1],,3,,8b,,,,
2b/1b,,,,6b-8[8:1]/5b-1[8:1],,,,6b/5b,,,,2-5[8:1],,3/7,,
2b/1b,,,,7-4[8:1],,61,,7b/8b,,,,3,,3,,
2-5[8:1],,5,,6,,7-3[8:1],,3,,2,,1-6[8:1],,1,,7-3[8:1],,,,2-5[8:1],,2,,7-3[8:1],,,,2,,,,
7-4[8:1],,4,,3,,2-6[8:1],,6,,7,,8-4[8:1],,8,,2-6[8:1],,,,8-3[8:1]*-5[8:1],,8,,,,,,26,,,,
8b/1b,,,,6b-8[8:1]/5b-1[8:1],,,,6b/5b,,,,2q6[8:1],,6>8[8:3],,
2b,,,,8-4[32:6],,8,,,,5,,5,,,,
7b/8b,,,,3b-1[8:1]/4b-8[8:1],,,,3b/4b,,,,7p3[8:1],,3<1[8:3],,
7b,,,,1-5[32:6],,1,,,,4,,4,,,,
3,,4,,3,,25,,,,6,,4b/7b,,4b/7bpp4[8:4],,,,5,,4,,3,,2,,1b,,1b,,,,
6,,5,,6,,47,,,,3,,5/2-5[8:1],,6,,7,,,,18,,3V58[8:3]/6V41[8:3],,,,,,,,,,
{8},,{32}1b/8b,2b/7b,3b/6b,4b/5b,{8},
57,6,75,,24,3,24,,74,6,7-5[32:3]/4,8,
7b/4b-7[32:3],,4b/1b-4[32:3]*-3[32:3],,1b,,1b-5[32:3]/8b-6[32:3],,8b-4[32:3]/1b-3[32:3],,1b/8b,,1b-4[12:1]*-4[12:1]/4b<6[12:1]*<6[12:1],,,,
{16}3/7-4[8:1],,4,,7,,3,,2-5[8:1],,5,,2,,6,,7-3[8:1],,3,,7,,2,,1>4[8:1]/5<8[8:1],,,,15,,,,
2-5[8:1],,5,,2,,6,,7-3[8:1],,3,,7,,2,,1-4[8:1],,4,,1-5[8:1],,5,,1,,,,37,,,,
2-5[8:1]/6,,5,,2,,6,,7-4[8:1],,4,,7,,3,,2-6[8:1],,6,,2,,7,,8<5[8:1]/4>1[8:1],,,,84,,,,
7-4[8:1],,4,,7,,3,,2-6[8:1],,6,,2,,7,,8qq1[16:5],,,,3,,4qq5[16:5],,,,,,8,,7V58[8:7]*V52[8:7],,
